<?xml version="1.0" standalone="no"?>
<!DOCTYPE svg PUBLIC "-//W3C//DTD SVG 1.1//EN" "http://www.w3.org/Graphics/SVG/1.1/DTD/svg11.dtd" >
<svg xmlns="http://www.w3.org/2000/svg">
<metadata>Generated by IcoMoon</metadata>
<defs>
<font id="icomoon" horiz-adv-x="1024">
<font-face units-per-em="1024" ascent="960" descent="-64" />
<missing-glyph horiz-adv-x="1024" />
<glyph unicode="&#x20;" horiz-adv-x="512" d="" />
<glyph unicode="&#xe900;" glyph-name="arrow-line-left" d="M482.731-34.731l-482.731 482.731 72.448 72.448 482.645-482.731zM0 448l482.731 482.731 72.363-72.448-482.56-482.731z" />
<glyph unicode="&#xe901;" glyph-name="ico-home" d="M657.067 21.333h-49.493v259.413h-191.147v-259.413h-331.093v469.333l426.667 384 426.667-384v-469.333h-281.6zM657.067 70.827h232.107v394.24l-377.173 341.333-377.173-341.333v-394.24h232.107v259.413h290.133v-259.413z" />
<glyph unicode="&#xe902;" glyph-name="android" d="M256 456.768v-332.736l317.44 335.296-317.44 330.752zM603.008 490.496l76.608 80.896-371.776 226.688 295.168-307.584zM603.264 428.288l-297.216-313.856 377.536 230.208-80.32 83.648zM842.624 472c-10.88 6.208-93.632 56.96-125.568 76.48l-84.288-88.96 88.32-92.032 120.576 73.536c16.128 9.792 14.528 23.232 0.96 30.976z" />
<glyph unicode="&#xe903;" glyph-name="app-download" d="M227.2 103.104h569.6v63.296h-569.6zM388.928 736v-232.064h-161.728l284.8-274.24 284.8 274.24h-161.728v232.064z" />
<glyph unicode="&#xe904;" glyph-name="facebook" d="M550.514 49.778v398.222h109.909l14.564 137.273h-124.473l0.171 68.722c0 35.84 3.413 54.955 54.841 54.955h68.722v137.273h-109.966c-132.096 0-178.574-66.56-178.574-178.517v-82.432h-82.318v-137.216h82.318v-398.279h164.807z" />
<glyph unicode="&#xe905;" glyph-name="policy" d="M197.433 27.733v840.476h432.896v-196.295h196.267v-644.181h-629.191zM678.684 837.262l127.147-116.964h-127.147v116.992zM663.893 916.622h-514.844v-937.273h725.902v743.083l-211.058 194.162zM314.482 695.524v-47.019c0.171-7.424 3.669-76.942 66.674-76.942 63.118 0 66.56 69.461 66.788 77.397l-0.057 46.564-66.731 34.475-66.674-34.475zM381.156 523.179c-89.458 0-114.375 81.721-115.115 124.928v76.857l115.115 59.449 115.172-59.449v-76.459c-0.683-43.605-25.6-125.326-115.172-125.326zM566.898 523.179h185.742v48.384h-185.742zM261.973 398.393h490.667v48.356h-490.667zM261.973 269.084h490.667v48.384h-490.667zM261.973 139.776h490.667v48.384h-490.667z" />
<glyph unicode="&#xe906;" glyph-name="ios" d="M285.12 548.672c-58.368-108.16-21.248-272.32 43.392-371.84 32.256-49.728 64.896-94.4 109.632-94.4h2.56c20.992 0.96 36.16 7.808 50.88 14.528 16.448 7.488 33.536 15.232 60.224 15.232 25.472 0 41.728-7.488 57.408-14.72 15.488-7.168 31.36-14.528 54.976-14.080 50.368 1.024 81.28 49.216 108.608 91.712 19.309 29.918 35.485 64.404 46.766 101.035l0.786 2.965 0.192 0.64c0.195 0.577 0.308 1.241 0.308 1.931 0 2.371-1.329 4.431-3.283 5.477l-0.033 0.016-0.384 0.128c-52.198 25.169-87.575 77.675-87.575 138.443 0 0.941 0.008 1.881 0.025 2.818l-0.002-0.141c-0.768 81.536 58.368 124.736 70.272 132.544l0.576 0.384c1.254 0.901 2.14 2.247 2.426 3.803l0.006 0.037c0.078 0.375 0.122 0.805 0.122 1.246 0 1.245-0.355 2.406-0.97 3.389l0.016-0.027c-27.669 43.244-74.543 72.094-128.299 74.484l-0.341 0.012c-3.344 0.392-7.236 0.625-11.178 0.64h-0.022c-29.568 0-57.92-11.968-80.64-21.504-15.744-6.656-29.312-12.352-38.72-12.352-10.496 0-24.192 5.76-40 12.48-21.12 8.96-45.056 19.072-70.4 19.072h-1.856c-58.944-0.896-114.688-36.928-145.472-93.952zM673.472 819.712c-35.712-1.536-78.528-25.024-104.192-57.024-21.76-26.88-43.008-71.68-37.44-116.928 0.384-2.816 2.56-4.992 5.184-5.248 2.432-0.192 4.928-0.256 7.36-0.256 34.944 0 72.576 20.544 98.304 53.76 27.136 35.072 40.832 80 36.672 120.32-0.206 3.012-2.701 5.378-5.747 5.378-0.049 0-0.099-0.001-0.148-0.002h0.007z" />
<glyph unicode="&#xe907;" glyph-name="kakao" d="M508.587 274.261c0-15.417-4.324-28.558-12.971-39.083-8.533-10.354-20.082-15.36-35.385-15.36-15.132 0-26.852 5.063-35.84 15.474-8.338 9.956-13.401 22.901-13.401 37.028 0 0.682 0.012 1.362 0.035 2.039l-0.003-0.098v338.83c0 19.001 5.12 33.451 15.758 44.146 10.468 10.524 25.316 15.872 44.203 15.872h105.984c49.948 0 88.007-12.516 113.152-37.092 18.86-18.521 33.064-41.721 40.735-67.722l0.282-1.113c3.698-13.198 5.575-26.51 5.575-39.595 0-43.065-11.378-78.45-33.906-105.244-25.657-31.232-63.431-47.104-112.242-47.104h-57.458v84.196h31.516c23.609 0 41.301 6.258 54.044 19.001 11.833 11.947 17.806 28.274 17.806 48.697-1.024 18.66-7.737 33.735-19.911 44.772-12.288 10.98-27.876 16.498-46.421 16.498h-61.554v-314.14zM388.949 375.751h-84.935c-0.532-0.020-1.156-0.031-1.783-0.031-12.304 0-23.598 4.326-32.443 11.539l0.093-0.074c-8.932 7.452-13.312 17.636-13.312 31.004 0 12.857 4.437 22.756 13.54 30.322 8.689 7.137 19.922 11.464 32.167 11.464 0.612 0 1.221-0.011 1.827-0.032l-0.088 0.002h84.935v-84.196zM910.222 448c0 219.932-178.29 398.222-398.222 398.222s-398.222-178.29-398.222-398.222v0c0-219.932 178.29-398.222 398.222-398.222s398.222 178.29 398.222 398.222v0z" />
<glyph unicode="&#xe908;" glyph-name="tel" d="M634.197 788.878c-2.937 0.299-6.347 0.469-9.796 0.469-9.88 0-19.434-1.397-28.475-4.004l0.724 0.179c-11.234-2.982-19.883-11.708-22.708-22.764l-0.047-0.219-34.133-151.268c-0.436-1.889-0.686-4.058-0.686-6.285 0-9.8 4.839-18.469 12.259-23.748l0.090-0.061c9.045-6.599 19.797-11.548 32.427-14.45 18.204-4.153 29.412-21.333 24.121-38.002-13.695-44.033-31.355-82.291-53.246-117.653l1.25 2.169c-24.098-37.801-51.029-70.572-81.405-99.787l-0.174-0.166c-6.219-5.838-14.612-9.424-23.843-9.424-9.142 0-17.463 3.518-23.682 9.275l0.023-0.021c-8.852 8.542-19.572 15.212-31.483 19.332l-0.603 0.181c-3.332 1.154-7.171 1.82-11.166 1.82-8.486 0-16.27-3.007-22.344-8.013l0.060 0.048-122.823-102.798c-6.682-5.319-10.928-13.452-10.928-22.577 0-1.813 0.168-3.586 0.488-5.306l-0.028 0.178c2.503-11.947 7.851-23.893 16.725-35.157 119.467-152.235 342.869 54.556 405.39 153.372 7.623 12.004 15.36 24.348 22.983 36.978 7.964 12.516 15.531 24.86 22.926 36.978 60.587 99.84 140.629 382.521-61.895 400.725z" />
<glyph unicode="&#xe909;" glyph-name="shortcut-govdr-w" d="M327.396 543.289c54.437 88.284 150.344 146.416 259.88 147.114l0.103 0.001c-44.129 54.105-110.742 88.421-185.375 88.576h-0.026c-89.145 0-170.098-48.526-211.399-126.464l-8.476-16.043-18.204-1.934c-93.468-9.671-163.897-86.983-163.897-179.712 0-78.336 51.029-144.612 121.913-169.813-0.284 4.722-1.422 9.33-1.422 14.108 0 121.173 87.723 223.175 206.905 244.167zM870.571 404.708c-5.063 0.91-10.069 2.162-15.303 2.503l-18.489 1.308-7.566 0.455-5.12 25.259c-12.8 64.114-52.053 117.248-104.789 150.869-26.467 17.337-57.79 29.679-91.47 34.876l-1.315 0.167c-10.667 1.842-23.071 2.993-35.708 3.184l-0.189 0.002c-80.213 0-153.6-39.481-197.575-104.277l102.116-100.58 78.279 77.084v-201.671h-204.8l78.279 76.971-107.065 105.529c-86.812-15.246-151.154-88.86-151.154-177.209 0-8.761 1.422-17.067 2.617-25.429 1.707-11.605 4.551-22.756 8.249-33.564 26.106-71.764 93.69-122.109 173.045-122.197l472.359-0.057c81.351 0 147.513 65.195 147.513 145.294 0 70.315-52.565 129.365-121.913 141.426z" />
<glyph unicode="&#xe90a;" glyph-name="shortcut-gov-faq-w" d="M769.991 550.571v149.902c0 48.868-40.391 88.86-89.714 88.86h-476.786c-0.071 0-0.155 0-0.239 0-18.592 0-35.852-5.699-50.13-15.444l0.307 0.198c-14.319-9.647-25.51-22.94-32.372-38.564l-0.225-0.575c-4.551-10.581-7.054-22.244-7.054-34.475v-338.887c0-48.924 40.391-88.917 89.714-88.917h27.136v-156.956l158.436 157.013h78.507v158.208c0 65.934 54.215 119.58 120.775 119.58h181.646zM874.553 489.188h-286.208c-32.427 0-58.766-26.112-58.766-58.197v-189.554c0-32.085 26.34-58.14 58.766-58.14h135.509l88.747-87.893v87.893h62.009c32.37 0 58.709 26.055 58.709 58.14v189.554c0 32.085-26.34 58.197-58.766 58.197z" />
<glyph unicode="&#xe90b;" glyph-name="recommend" d="M942.080 563.425v-273.695c0-43.008-34.816-78.193-78.234-78.193h-273.613v-78.193h78.234v-78.193h-312.893v78.234h78.193v78.152h-273.654c-43.418 0-78.193 35.226-78.193 78.234v469.115c0 43.418 34.816 78.234 78.234 78.234h703.693c43.008 0 78.234-34.816 78.234-78.234v-195.461zM863.846 563.425v195.502h-703.693v-469.197h703.693v273.695zM549.929 563.425h118.456l-96.584-68.813 36.782-113.787-96.584 70.451-96.584-70.41 36.782 113.787-96.584 68.813h118.456l37.929 117.309 37.929-117.309z" />
<glyph unicode="&#xe90c;" glyph-name="shortcut-indv" d="M172.601 80.668h355.385c-6.258 108.373-57.060 201.557-128.512 232.107-10.244 4.454-17.278 14.486-17.278 26.161 0 10.559 5.753 19.774 14.295 24.681l0.138 0.073c32.085 18.204 52.338 53.476 52.907 91.819 0.74 58.596-42.837 106.837-97.109 107.634-54.955 0-99.1-46.933-99.84-104.562-0.512-39.993 19.911-76.459 53.476-95.289 8.714-4.973 14.493-14.205 14.493-24.788 0-11.545-6.878-21.483-16.76-25.941l-0.179-0.072c-67.356-29.924-119.979-124.814-131.015-231.822zM557.056 23.78h-414.834c-8.005 0.028-15.233 3.333-20.418 8.641l-0.005 0.006c-4.937 5.151-7.977 12.154-7.977 19.867 0 0.296 0.004 0.59 0.013 0.884l-0.001-0.043c3.641 121.344 54.613 232.732 128.171 288.427-28.67 29.724-46.334 70.232-46.334 114.865 0 1.038 0.010 2.074 0.029 3.107l-0.002-0.155c1.138 88.633 70.827 160.711 155.364 160.711 87.78-1.252 156.501-75.378 155.307-165.205-0.517-43.468-17.639-82.838-45.303-112.152l0.076 0.081c77.369-55.467 125.952-166.116 124.359-290.93-0.256-15.512-12.891-27.989-28.441-27.989-0.001 0-0.003 0-0.004 0v0zM475.648 635.79h296.562v45.511h-296.562zM500.793 208.896h271.417v45.511h-271.417zM463.929 493.511h308.281v45.511h-308.281zM463.929 351.289h308.281v45.511h-308.281zM818.802 846.222h-389.86c-57.793-0.355-104.505-47.287-104.505-105.129 0-0.121 0-0.241 0.001-0.362v0.019-151.040c14.507-1.65 36.523-3.868 56.889-5.86v156.9c0 26.795 21.447 48.583 47.616 48.583h389.86c26.283 0 47.673-21.788 47.673-48.583v-611.442c0.001-0.119 0.002-0.26 0.002-0.402 0-26.444-21.276-47.918-47.644-48.238h-270.082v-56.889h270.052c57.817 0.322 104.563 47.267 104.563 105.129 0 0.141 0 0.281-0.001 0.421v-0.022 611.442c0 0.102 0.001 0.222 0.001 0.343 0 57.862-46.745 104.806-104.531 105.129h-0.031z" />
<glyph unicode="&#xe90d;" glyph-name="join-process" d="M770.844 366.478h-56.889v-66.958h-66.901v-56.889h66.958v-66.958h56.889v66.958h66.958v56.889h-67.015zM742.4 100.409c-94.037 0-170.667 76.572-170.667 170.667s76.629 170.667 170.667 170.667c94.151 0 170.667-76.572 170.667-170.667s-76.516-170.667-170.667-170.667zM230.002 206.848c16.27 132.722 102.969 245.191 184.036 281.202 10.021 4.564 16.862 14.491 16.862 26.017 0 10.607-5.794 19.861-14.39 24.768l-0.14 0.074c-41.984 23.552-67.698 69.234-66.958 119.296 0.91 72.306 56.434 131.129 125.497 131.129 68.267-0.967 123.108-61.44 122.14-134.827-0.626-48.071-26.055-92.16-66.389-115.143-8.604-5.028-14.293-14.22-14.293-24.74 0-11.641 6.965-21.656 16.956-26.103l0.182-0.072c24.454-11.074 45.238-26.104 62.48-44.495l0.098-0.106c-49.209-41.756-81.18-103.253-81.18-172.715 0-22.471 4.267-43.691 10.354-64.228h-295.253zM742.457 498.688c-35.385 0-68.494-8.875-98.418-23.324-14.072 16.055-29.648 30.204-46.684 42.448l-0.818 0.56c34.963 34.588 56.798 82.384 57.4 135.282l0.001 0.114c1.365 104.505-78.564 190.862-180.736 192.455-98.304 0-179.371-84.025-180.679-187.278-0.021-1.062-0.033-2.313-0.033-3.567 0-54.052 22.269-102.902 58.133-137.876l0.040-0.039c-88.747-60.245-173.796-186.994-179.996-337.863-0.018-0.374-0.028-0.811-0.028-1.252 0-15.647 12.684-28.331 28.331-28.331 0.030 0 0.059 0 0.089 0h351.398c40.753-64.232 111.414-106.295 191.913-106.496h0.030c125.497 0 227.556 102.059 227.556 227.556s-102.059 227.556-227.556 227.556z" />
<glyph unicode="&#xe90e;" glyph-name="response" d="M714.809 831.431c-99.59-0.156-180.263-80.925-180.263-180.537 0-25.297 5.203-49.378 14.597-71.233l-0.449 1.174c1.215-2.791 1.922-6.042 1.922-9.458 0-6.678-2.701-12.726-7.071-17.109l-402.829-402.858c-7.326-7.338-11.857-17.469-11.857-28.658s4.53-21.32 11.857-28.658l17.72-17.72c7.353-7.316 17.492-11.838 28.686-11.838s21.333 4.522 28.688 11.84l403.141 403.17c4.378 4.391 10.433 7.107 17.122 7.107 3.368 0 6.576-0.689 9.489-1.933l-0.158 0.060c22.158-9.244 45.454-13.938 69.433-13.938 99.52 0.129 180.164 80.763 180.309 180.267v0.014c0 10.126-0.91 20.224-2.645 30.265l-57.401-57.287c-4.376-4.378-10.422-7.087-17.101-7.087-0.839 0-1.668 0.043-2.486 0.126l0.103-0.008-108.601 10.894c-11.436 1.194-20.439 10.206-21.609 21.543l-0.009 0.103-10.923 108.658c-0.077 0.722-0.12 1.561-0.12 2.409 0 6.666 2.698 12.702 7.061 17.076v0l52.452 52.452c-5.7 0.761-12.291 1.195-18.983 1.195-0.016 0-0.033 0-0.049 0h0.002zM187.108 16.185c-0.058 0-0.127 0-0.196 0-24.484 0-46.65 9.924-62.695 25.97l-17.749 17.749c-16.036 16.112-25.949 38.329-25.949 62.862s9.913 46.751 25.953 62.866l391.791 391.819c-7.698 21.811-12.146 46.963-12.146 73.153 0 0.182 0 0.364 0.001 0.546v-0.028c0 126.094 102.599 228.693 228.693 228.693 24.178 0 48.583-4.38 74.496-13.369 9.569-3.366 16.305-12.327 16.305-22.86 0-6.68-2.709-12.728-7.089-17.104l-74.809-74.781 7.822-77.54 77.483-7.765 78.165 78.137c4.371 4.4 10.425 7.124 17.115 7.124 10.12 0 18.785-6.233 22.365-15.069l0.058-0.162c11.15-27.705 16.782-56.348 16.782-85.276 0-126.094-102.628-228.665-228.693-228.665-0.086 0-0.188 0-0.289 0-25.9 0-50.79 4.321-73.989 12.283l1.603-0.478-392.107-392.107c-16.058-16.046-38.235-25.97-62.73-25.97-0.056 0-0.113 0-0.169 0h0.009z" />
<glyph unicode="&#xe90f;" glyph-name="security" d="M912.668 486.258c0-204.032-171.89-392.761-400.668-440.804-228.75 48.071-400.64 236.772-400.64 440.804v215.808l400.64 146.29 400.668-146.29v-215.808zM512 899.84l-449.024-163.925v-249.628c0-228.068 191.004-438.357 444.302-489.188l4.722-0.939 4.779 0.939c253.269 50.83 444.302 261.12 444.302 489.188v249.572l-449.081 164.011zM255.659 609.82l256.341 93.582 256.341-93.582v-136.761c0-130.389-109.881-251.136-256.341-282.624-146.432 31.488-256.284 152.235-256.284 282.624v136.789zM207.303 473.060c0-154.396 128.91-296.676 299.918-331.008l4.75-0.967 4.779 0.967c170.951 34.304 299.947 176.612 299.947 331.008v170.581l-304.725 111.275-304.697-111.275v-170.581z" />
<glyph unicode="&#xe910;" glyph-name="duplexing" d="M512 615.822c-92.64-0.113-167.709-75.182-167.822-167.812v-0.011c0-92.558 75.321-167.822 167.822-167.822s167.822 75.264 167.822 167.822c0 92.501-75.321 167.822-167.822 167.822zM512 231.822c-119.182 0-216.178 96.967-216.178 216.178 0 119.182 96.996 216.178 216.178 216.178 119.211 0 216.178-96.996 216.178-216.178 0-119.211-96.967-216.178-216.178-216.178zM95.175 233.472h416.825v48.384h-416.825zM198.258 103.993l-153.657 153.685 153.657 153.628 34.247-34.219-119.467-119.41 119.467-119.467zM511.602 615.822h416.825v48.356h-416.825zM825.344 486.315l-34.219 34.219 119.467 119.467-119.467 119.438 34.219 34.219 153.685-153.657z" />
<glyph unicode="&#xe911;" glyph-name="financial-cloud" d="M902.059 322.702c-8.248 56.953-34.302 106.707-72.243 144.549l-0.005 0.005c-46.182 46.439-110.119 75.18-180.769 75.18-0.238 0-0.477 0-0.715-0.001h0.037c-68.551 0-133.035-26.738-181.476-75.179-46.456-46.185-75.208-110.133-75.208-180.797 0-0.239 0-0.477 0.001-0.715v0.037c0-7.282 0.484-14.507 1.081-21.703h-109.284c-110.080 0-199.623 89.6-199.623 199.68 0 0.164-0.001 0.359-0.001 0.553 0 102.444 77.499 186.786 177.067 197.599l0.882 0.078 15.417 1.65 7.168 13.739c43.512 82.813 128.931 138.326 227.317 138.326 0.104 0 0.208 0 0.312 0h-0.016c122.169 0 228.011-86.955 251.62-206.763l4.267-21.703 22.101-1.508c84.196-5.831 150.187-76.146 150.187-160.085 0-39.282-14.677-74.866-38.116-102.969zM793.6 140.487c-37.062-37.166-88.317-60.16-144.944-60.16-0.103 0-0.206 0-0.31 0h0.016c-111.685 2.348-201.324 93.44-201.324 205.468s89.639 203.12 201.105 205.465l0.219 0.004c52.565 0 105.188-20.053 145.237-60.217 37.188-37.177 60.19-88.542 60.19-145.28s-23.002-108.103-60.189-145.28v0zM810.212 634.994c-34.361 135.31-157.184 231.908-298.212 231.908-0.138 0-0.302 0-0.466 0-113.833 0-213.191-61.971-266.178-154.017l-0.79-1.489c-120.712-19.087-211.912-122.397-211.912-247.007 0-0.222 0-0.443 0.001-0.665v0.034c0-138.325 112.498-250.88 250.823-250.88h118.756c12.823-42.676 35.15-79.216 64.619-108.594l0.006-0.006c46.199-46.44 110.152-75.18 180.816-75.18 0.242 0 0.484 0 0.725 0.001h-0.038c68.551 0 133.006 26.738 181.476 75.179 39.1 38.962 65.59 90.555 72.832 148.139l0.128 1.251c53.419 38.684 88.576 101.12 88.576 171.975 0 105.102-78.308 193.991-181.191 209.351zM636.302 190.492c-33.422 5.461-56.263 25.941-62.066 58.652h42.297c5.803-17.408 19.797-25.202 38.912-25.202 19.399 0 31.687 8.875 31.687 24.178 0 12.629-7.168 19.115-24.917 23.211l-33.394 8.192c-27.648 6.485-49.778 21.845-49.778 55.609 0 32.085 22.812 55.296 57.287 59.733v31.004h36.181v-32.427c29.98-6.77 47.73-26.965 53.532-54.898h-40.619c-4.437 12.971-16.043 22.869-36.124 22.869-18.091 0-29.696-9.216-29.696-23.211 0-11.605 7.509-18.062 21.845-21.845l35.499-8.533c31.687-7.851 51.143-26.596 51.143-57.316 0-33.052-22.869-54.556-55.58-60.018v-33.081h-36.21v33.081z" />
<glyph unicode="&#xe912;" glyph-name="high-quality" d="M368.896-15.701c-0.004 0-0.009 0-0.014 0-8.252 0-15.538 4.134-19.901 10.444l-0.053 0.081-75.008 109.852-132.665 10.069c-12.548 0.974-22.361 11.396-22.361 24.109 0 4.456 1.205 8.63 3.308 12.214l-0.062-0.114 136.107 235.804 41.956-24.235-116.907-202.439 105.842-8.021c7.567-0.617 14.093-4.592 18.152-10.416l0.053-0.080 59.847-87.666 123.847 214.5 41.899-24.178-143.076-247.836c-4.132-7.023-11.52-11.744-20.034-12.087l-0.047-0.002h-0.882zM655.076-15.701h-0.853c-8.551 0.355-15.926 5.074-19.991 11.975l-0.062 0.114-170.297 294.94 41.899 24.235 151.097-261.689 59.847 87.694c4.092 5.899 10.599 9.874 18.060 10.49l0.088 0.006 105.899 8.021-117.191 202.894 41.927 24.178 136.391-236.203c2.017-3.459 3.207-7.615 3.207-12.048 0-12.721-9.802-23.153-22.265-24.156l-0.086-0.006-132.608-10.069-75.065-109.824c-4.413-6.405-11.706-10.551-19.968-10.553v0zM509.838 676.58c-57.32-0.049-103.774-46.502-103.822-103.817v-0.005c0.049-57.32 46.502-103.774 103.817-103.822h0.005c57.32 0.049 103.774 46.502 103.822 103.817v0.005c-0.049 57.32-46.502 103.774-103.817 103.822h-0.005zM509.838 420.58c-83.911 0-152.178 68.267-152.178 152.178s68.267 152.178 152.178 152.178c83.911 0 152.178-68.267 152.178-152.178s-68.267-152.178-152.178-152.178zM271.644 399.701l90.908-8.818c8.902-0.888 16.313-6.488 19.765-14.239l0.061-0.154 36.437-83.769 78.734 46.364c3.519 2.092 7.759 3.328 12.288 3.328s8.769-1.236 12.401-3.39l-0.113 0.062 78.706-46.364 36.437 83.769c3.539 7.924 10.978 13.534 19.81 14.413l0.101 0.008 90.908 8.789-19.769 89.173c-0.354 1.554-0.557 3.338-0.557 5.17 0 7.209 3.14 13.684 8.127 18.133l0.024 0.021 68.352 60.558-68.352 60.587c-5.014 4.451-8.158 10.913-8.158 18.109 0 1.838 0.205 3.628 0.594 5.349l-0.031-0.162 19.769 89.173-90.937 8.818c-8.916 0.892-16.341 6.488-19.821 14.239l-0.062 0.154-36.409 83.769-78.734-46.364c-3.519-2.092-7.759-3.328-12.288-3.328s-8.769 1.236-12.401 3.39l0.113-0.062-78.734 46.364-36.409-83.769c-3.51-7.924-10.935-13.538-19.754-14.413l-0.1-0.008-90.937-8.789 19.712-89.202c0.375-1.591 0.59-3.417 0.59-5.294 0-7.166-3.132-13.6-8.102-18.009l-0.025-0.022-68.409-60.587 68.409-60.53c4.989-4.449 8.115-10.895 8.115-18.071 0-1.862-0.21-3.675-0.609-5.416l0.031 0.162-19.712-89.173zM407.552 233.87c-0.034 0-0.074 0-0.115 0-9.846 0-18.308 5.928-22.012 14.409l-0.060 0.155-41.671 95.659-103.936 10.069c-7.113 0.68-13.244 4.387-17.161 9.8l-0.048 0.070c-2.913 3.939-4.663 8.893-4.663 14.255 0 1.843 0.207 3.638 0.598 5.362l-0.031-0.162 22.585 101.916-78.165 69.262c-5.035 4.433-8.196 10.893-8.196 18.091s3.16 13.658 8.169 18.068l0.027 0.023 78.165 69.234-22.585 101.973c-0.361 1.563-0.567 3.358-0.567 5.201 0 5.362 1.75 10.316 4.71 14.321l-0.046-0.066c3.965 5.484 10.096 9.19 17.112 9.863l0.097 0.007 103.936 10.069 41.671 95.687c3.864 8.625 12.373 14.525 22.26 14.525 4.499 0 8.713-1.222 12.328-3.352l-0.114 0.062 89.998-52.964 89.97 52.964c3.506 2.075 7.727 3.301 12.234 3.301 9.87 0 18.366-5.879 22.179-14.327l0.062-0.153 41.7-95.744 103.936-10.069c12.314-1.175 21.868-11.467 21.868-23.99 0-1.882-0.216-3.713-0.624-5.471l0.032 0.163-22.556-102.002 78.222-69.234c5.002-4.45 8.137-10.904 8.137-18.091s-3.135-13.641-8.113-18.069l-0.024-0.021-78.222-69.262 22.556-101.916c0.376-1.595 0.592-3.426 0.592-5.308 0-12.523-9.554-22.814-21.771-23.982l-0.097-0.008-103.936-10.098-41.7-95.744c-3.874-8.601-12.371-14.48-22.24-14.48-4.507 0-8.728 1.226-12.348 3.363l0.113-0.062-89.97 52.964-89.998-52.964c-3.514-2.092-7.749-3.328-12.272-3.328-0.006 0-0.011 0-0.017 0h0.001z" />
<glyph unicode="&#xe913;" glyph-name="hybrid" d="M512.796 27.733c-68.333 0.097-123.697 55.482-123.762 123.813v0.006c0 68.267 55.495 123.819 123.762 123.819 0.017 0 0.037 0 0.057 0 42.55 0 80.084-21.478 102.351-54.184l0.276-0.43 40.107 27.079c-31.356 46.063-83.546 75.918-142.709 75.918-0.029 0-0.058 0-0.087 0h0.004c-86.642 0-157.867-64.597-169.756-148.025h-252.388v544.484h362.325c9.754-23.472 32.495-39.678 59.022-39.68v0c0.021 0 0.045 0 0.070 0 35.268 0 63.858 28.59 63.858 63.858s-28.59 63.858-63.858 63.858c-26.539 0-49.296-16.189-58.936-39.23l-0.156-0.421h-410.709v-641.252h300.772c11.89-83.399 83.115-147.996 169.756-147.996 0.026 0 0.056 0 0.086 0 59.155 0 111.34 29.843 142.321 75.294l0.383 0.596-40.107 27.108c-22.562-33.137-60.109-54.613-102.673-54.613-0.004 0-0.008 0-0.013 0h0.001zM984.548 768.569h-302.791c-11.89 83.456-83.058 148.025-169.756 148.025-0.024 0-0.053 0-0.082 0-59.163 0-111.353-29.855-142.325-75.322l-0.383-0.596 40.107-27.079c22.543 33.135 60.077 54.613 102.627 54.613 0.020 0 0.040 0 0.060 0h-0.003c68.326-0.113 123.681-55.488 123.762-123.811v-0.008c0-68.267-55.552-123.819-123.762-123.819-0.017 0-0.037 0-0.057 0-42.55 0-80.084 21.478-102.351 54.184l-0.276 0.43-40.107-27.108c31.358-46.047 83.539-75.89 142.69-75.89 0.036 0 0.071 0 0.107 0h-0.006c86.642 0 157.867 64.569 169.728 147.996h254.379v-544.455h-364.26c-9.764 23.494-32.527 39.713-59.079 39.713-35.236 0-63.801-28.565-63.801-63.801 0-0.032 0-0.063 0-0.095v0.005c0.112-35.183 28.659-63.66 63.857-63.66 26.474 0 49.186 16.111 58.865 39.063l0.157 0.42h412.729v641.195z" />
<glyph unicode="&#xe914;" glyph-name="access-control" horiz-adv-x="996" d="M464.564 7.071l-4.428 0.886c-262.338 52.584-460.136 270.308-460.136 506.354v257.937l464.564 169.624 464.564-169.652v-257.937c-0.111-48.333-8.012-94.783-22.512-138.213l0.898 3.1-43.119 13.921c12.786 39.133 19.373 80.010 19.484 121.192v226.276l-419.314 153.102-419.286-153.102v-226.249c0-213.573 179.92-411.039 419.286-461.049 33.503 7.051 62.4 15.75 90.237 26.571l-3.889-1.33 16.080-42.316c-31.827-12.094-64.595-21.559-97.972-28.229l-4.428-0.886h-0.028zM466.474 157.821l-4.456 0.886c-176.737 35.48-309.968 182.438-309.968 341.878v175.685l314.396 114.826 314.423-114.854v-175.658c0-21.919-2.518-44.060-7.528-65.813l-44.115 10.157c4.207 18.432 6.365 37.113 6.365 55.656v144.024l-269.118 98.249-269.146-98.249v-144.024c0-136.967 115.38-263.749 269.146-296.545 7.915 1.716 15.803 3.653 23.524 5.812l12.288-43.562c-10.351-2.906-20.812-5.452-31.357-7.583l-4.456-0.886zM466.474 595.262c-38.58 0-69.964-30.416-69.964-67.778s31.384-67.805 69.964-67.805c38.552 0 69.936 30.443 69.936 67.805s-31.384 67.805-69.936 67.805zM466.474 414.402c-63.571 0-115.242 50.73-115.242 113.083s51.67 113.083 115.242 113.083c63.543 0 115.214-50.73 115.214-113.083 0-62.381-51.67-113.083-115.214-113.083zM336.426 235.811l-45.277 0.83c2.269 123.018 80.896 223.066 175.298 223.066 47.99 0 92.769-24.078 125.98-67.778l-36.034-27.399c-24.465 32.159-56.431 49.872-89.946 49.872-68.691 0-128.221-81.782-130.020-178.591zM736.616 405.352c-113.194 0-205.326-92.105-205.326-205.354s92.105-205.354 205.354-205.354c113.194 0 205.354 92.105 205.354 205.354 0 113.194-92.16 205.354-205.354 205.354zM736.643-50.633c-138.212 0-250.631 112.419-250.631 250.631s112.419 250.631 250.603 250.631c138.212 0 250.659-112.419 250.659-250.631s-112.446-250.631-250.659-250.631zM711.071 210.46h51.145v58.479c-0.653 13.617-11.852 24.41-25.572 24.41s-24.919-10.793-25.57-24.352l-0.002-0.058v-58.506zM807.493 165.182h-141.699v103.784c0.047 39.101 31.724 70.787 70.816 70.85h0.006c39.116-0.047 70.814-31.736 70.877-70.844v-103.79zM641.522 82.819h190.243v154.32h-190.243z" />
<glyph unicode="&#xe915;" glyph-name="cctv" d="M85.066 630.979v-11.618c0-13.144 10.668-23.757 23.757-23.757h806.353c13.107 0 23.775 10.612 23.775 23.757v11.618h-853.886zM915.195 552.932h-806.353c-36.679 0.032-66.406 29.752-66.448 66.426v54.295h939.231v-54.272c-0.042-36.671-29.759-66.387-66.426-66.43h-0.004zM85.085 673.615v129.154h853.886v-129.154h-853.886zM42.375 630.961h939.213v214.481h-939.213v-214.481zM509.002 50.558c-213.923 0-387.928 174.043-387.928 387.928l-2.178 143.099 42.673 0.596 2.178-143.36c0-190.725 154.866-345.591 345.256-345.591 190.371 0 345.256 154.866 345.256 345.256l2.141 143.695 42.654-0.596-2.122-143.397c0-213.588-174.043-387.631-387.928-387.631zM509.002 456.881c-77.917 0-141.312-63.395-141.312-141.312 0-77.898 63.395-141.312 141.312-141.312 77.898 0 141.312 63.414 141.312 141.312 0 77.917-63.414 141.312-141.312 141.312zM509.002 131.603c-101.413 0-183.985 82.553-183.985 183.966 0 101.432 82.572 183.985 183.985 183.985s183.985-82.553 183.985-183.985c0-101.413-82.572-183.966-183.985-183.966zM509.002 378.852c-34.938-0.032-63.251-28.346-63.283-63.28v-0.003c0.042-34.93 28.352-63.233 63.28-63.265h0.003c34.923 0.042 63.222 28.342 63.265 63.26v0.004c-0.032 34.931-28.335 63.241-63.261 63.283h-0.004zM509.002 209.613c-58.484 0.074-105.874 47.47-105.937 105.95v0.006c0.074 58.478 47.46 105.863 105.93 105.937h0.007c58.478-0.074 105.863-47.46 105.937-105.93v-0.007c-0.074-58.478-47.46-105.863-105.93-105.937h-0.007zM776.136 438.505c0-11.784-9.553-21.336-21.336-21.336s-21.336 9.553-21.336 21.336v0c0 11.784 9.553 21.336 21.336 21.336s21.336-9.553 21.336-21.336v0z" />
<glyph unicode="&#xe916;" glyph-name="compliance" d="M855.95 165.433h-60.7v-60.729h-565.134v60.729h-60.672v565.163h65.081v60.672h560.725v-60.672h60.7v-565.191zM843.662 44.032v73.017h72.96v-73.017h-72.96zM108.743 44.032v73.017h72.96v-73.017h-72.96zM113.095 778.98v72.988h72.988v-72.988h-72.988zM843.662 778.98v72.988h72.96v-72.988h-72.96zM965.063 730.596v169.756h-169.813v-60.672h-560.725v60.672h-169.87v-169.756h56.377v-565.191h-60.672v-169.756h169.756v60.672h565.134v-60.672h169.813v169.785h-60.672v565.163h60.672zM487.282 303.445l-173.767 148.764 31.403 36.75 138.809-118.784 193.422 205.568 35.271-33.195z" />
<glyph unicode="&#xe917;" glyph-name="meet-fin" horiz-adv-x="1106" d="M1019.29 249.815c-20.603-20.644-56.586-20.562-77.087 0l-32.113 32.072c-0.15 0.187-0.304 0.354-0.469 0.51l-171.092 171.051-37.007-36.925 171.459-171.459c9.628-9.833 15.57-23.309 15.57-38.172 0-15.048-6.090-28.673-15.939-38.547l0.001 0.001c-9.87-9.835-23.486-15.916-38.523-15.916s-28.653 6.081-38.524 15.917l-171.047 171.088-36.987-36.946 138.465-138.486c9.867-9.878 15.968-23.519 15.968-38.584 0-15.045-6.085-28.669-15.929-38.545l0.001 0.001c-9.874-9.842-23.498-15.928-38.543-15.928s-28.669 6.085-38.545 15.929l0.001-0.001-31.478 31.416c-0.38 0.439-0.741 0.832-1.113 1.215l-105.875 105.875-37.007-36.946 106.762-106.721c9.769-10.24 15.114-23.552 15.114-37.683 0-14.623-5.673-28.303-15.974-38.584-20.521-20.644-56.504-20.603-77.066 0l-407.347 407.327c-26.383 26.378-42.702 62.821-42.702 103.076 0 0.23 0.001 0.46 0.002 0.69v-0.035c0 39.301 15.196 76.063 42.762 103.67l175.964 175.985c59.453 59.433 109.732 79.667 163.451 79.667 28.16 0 57.242-5.53 89.088-13.926l-139.633-139.612c-19.268-19.175-31.192-45.716-31.192-75.041 0-0.151 0-0.301 0.001-0.452v0.023c0-28.57 11.059-55.398 31.13-75.489 40.202-40.223 110.797-40.264 151.060 0l120.013 120.013 364.339-364.421c9.864-9.872 15.965-23.505 15.965-38.564 0-15.038-6.084-28.655-15.925-38.524l0.001 0.001zM591.954 856.412c61.604 61.604 161.915 61.604 223.662 0l179.61-179.61c28.507-28.44 46.143-67.764 46.143-111.208 0-0.244-0.001-0.488-0.002-0.732v0.038c0-42.394-16.404-82.104-46.121-111.821l-14.111-14.152-326.246 326.287-156.938-157c-20.521-20.46-56.73-20.398-77.107 0-9.818 9.774-15.894 23.301-15.894 38.246 0 0.119 0 0.238 0.001 0.356v-0.018c0 14.602 5.632 28.283 15.892 38.502l171.11 171.11zM1018.102 402.022l14.049 14.090c37.955 37.797 61.442 90.098 61.442 147.884 0 0.318-0.001 0.635-0.002 0.952v-0.049c0.001 0.286 0.002 0.625 0.002 0.964 0 57.786-23.487 110.087-61.435 147.877l-179.576 179.576c-78.234 78.295-203.366 81.92-286.024 10.793-119.48 34.591-215.429 46.019-332.554-71.025l-175.903-175.964c-35.893-35.742-58.103-85.2-58.103-139.846 0-0.278 0.001-0.555 0.002-0.833v0.043c-0.001-0.263-0.002-0.573-0.002-0.884 0-54.628 22.194-104.073 58.057-139.808l407.312-407.292c19.223-19.33 45.836-31.294 75.244-31.294 0.079 0 0.158 0 0.237 0h-0.012c28.488 0 55.296 11.1 75.53 31.293 15.389 15.364 26.081 35.43 29.737 57.859l0.082 0.612c12.177-5.232 26.35-8.274 41.234-8.274 52.941 0 96.893 38.49 105.398 89.013l0.087 0.628c38.38-16.077 86.303-7.229 116.736 23.101 15.347 15.357 26.034 35.374 29.754 57.746l0.085 0.622c38.339-16.077 86.364-7.27 116.777 23.040 19.295 19.239 31.232 45.846 31.232 75.243 0 0.101 0 0.202 0 0.303v-0.016c0 0.096 0 0.21 0 0.323 0 29.372-11.939 55.956-31.229 75.162l-38.158 38.158z" />
<glyph unicode="&#xe918;" glyph-name="data-fin" d="M194.859 510.592h256v48.384h-256zM194.859 406.997h256v48.341h-256zM441.557 717.824h256v48.341h-256zM851.413 15.531h-391.424v196.693c0.121 107.492 87.203 194.604 194.672 194.773h196.752v-391.467zM133.76 65.28v548.992l378.24-0.085v-205.525c-21.531-15.776-39.869-34.291-54.967-55.291l-0.499-0.73h-261.675v-48.427h234.923c-6.374-15.181-11.51-32.921-14.569-51.364l-0.194-1.414h-220.16v-48.384h216.747v-137.813h-277.888zM380.416 826.283h378.24v-370.901h-103.979c-33.451 0-65.28-6.827-94.251-19.029v74.24h137.131v48.341h-137.131v55.253h137.131v48.384l-317.141 0.043v163.669zM807.083 455.381v419.285h-475.093v-212.053h-246.613v-645.675h326.187v-49.792h488.277v488.235h-92.757zM631.509 94.080h48.427v234.368h-48.427zM545.323 94.080h48.427v106.368h-48.427zM717.653 94.080h48.427v191.701h-48.427z" />
<glyph unicode="&#xe919;" glyph-name="support-fin" d="M224 216.405h150.571l4.821-48.512h-157.525zM794.069 1.152c-79.231 0.097-143.434 64.3-143.531 143.521v0.009c0.073 79.249 64.285 143.476 143.521 143.573h0.009c79.227-0.121 143.415-64.339 143.488-143.566v-0.007c-0.073-79.225-64.266-143.433-143.479-143.531h-0.009zM485.291 577.579c-0.073-52.699-42.786-95.397-95.483-95.445h-0.005c-52.68 0.097-95.354 42.801-95.403 95.483v0.005c0 48.085 35.883 87.595 82.261 94.123h26.368c46.626-6.629 82.108-46.209 82.261-94.107v-0.016zM188.672 307.243h-138.539c11.093 120.064 86.059 217.259 171.733 217.259 13.056 0 25.685-2.347 37.973-6.229 10.821-23.612 26.953-43.164 46.946-57.739l0.414-0.288c-52.48-28.757-94.933-84.096-118.485-153.045zM126.464 668.373c0.024 52.688 42.718 95.397 95.398 95.445h0.005c42.155 0 77.44-27.733 89.941-65.707-39.795-25.915-65.757-70.162-65.835-120.479v-0.012c0-0.427 0.128-0.768 0.128-1.195-7.68-2.133-15.787-3.499-24.235-3.499-52.675 0.073-95.354 42.767-95.403 95.441v0.005zM804.267 335.573v539.179h-438.613v-155.819c-2.987-0.512-5.973-0.981-8.875-1.707-20.508 55.788-73.127 94.889-134.896 95.019h-0.016c-79.377-0.121-143.69-64.449-143.787-143.82v-0.009c0-48.512 24.235-91.307 61.099-117.333-79.275-43.435-136.619-146.987-138.752-267.648l-0.427-24.619h175.915c-4.165-19.575-6.869-42.337-7.498-65.616l-0.011-0.517-0.427-24.619h180.992v-64.213l106.069 88.32-106.069 88.448v-64.213h-130.859c11.093 120.107 86.059 217.344 171.691 217.344 89.045 0 164.821-96.896 172.459-220.587l48.256 2.987c-6.955 112.981-61.44 205.227-136.96 244.907 36.527 26.269 60.060 68.616 60.16 116.464v0.016c-0.143 70.761-51.409 129.506-118.82 141.273l-0.86 0.124v107.392h341.803v-493.568c-87.139-18.345-151.858-93.879-153.384-184.795l-0.002-0.165h-125.227l-58.027-48.384h188.885c20.48-83.925 95.829-146.645 186.027-146.645 105.924 0.146 191.751 85.987 191.872 191.903v0.012c0 102.357-80.725 185.472-181.717 190.933zM794.069 103.765c-0.558-0.027-1.212-0.043-1.869-0.043-22.622 0-40.96 18.338-40.96 40.96s18.338 40.96 40.96 40.96c0.657 0 1.311-0.015 1.961-0.046l-0.092 0.003c21.803-1.027 39.091-18.953 39.091-40.917s-17.288-39.891-38.999-40.914l-0.092-0.003zM875.648 144.683c0 5.035-0.64 9.941-1.493 14.72l28.843 25.173-36.437 41.685-21.248-18.56c-6.631 5.45-14.314 9.947-22.648 13.124l-0.562 0.188v33.067h-55.339v-32.853c-9.166-3.338-17.085-7.918-24.033-13.637l0.139 0.111-21.333 18.56-36.437-41.643 28.843-25.216c-0.853-4.779-1.451-9.685-1.451-14.72 0-5.632 0.555-11.093 1.621-16.427l-29.013-23.68 35.072-42.837 23.509 19.2c6.912-5.461 14.635-9.813 23.083-12.8v-32.853h55.339v33.067c8.555 3.231 15.95 7.481 22.525 12.715l-0.167-0.129 23.509-19.2 35.029 42.837-29.013 23.68c1.067 5.333 1.707 10.795 1.707 16.427z" />
<glyph unicode="&#xe91a;" glyph-name="security-fin" d="M892.331 461.013c0-204.032-171.861-392.747-400.64-440.747-228.693 48-400.597 236.715-400.597 440.747v215.808l400.64 146.347 400.64-146.347v-215.808zM491.691 874.624l-449.024-163.968v-249.6c0-228.096 190.976-438.4 444.288-489.216l4.736-0.939 4.779 0.939c253.269 50.816 444.288 261.12 444.288 489.173v249.643l-449.067 163.968zM747.989 447.872c0-130.389-109.824-251.136-256.299-282.624-146.432 31.488-256.299 152.235-256.299 282.624v136.747l256.299 93.611 256.299-93.611v-136.747zM187.008 618.453v-170.581c0-154.453 128.939-296.747 299.947-331.008l4.736-0.981 4.736 0.981c171.008 34.261 299.989 176.597 299.989 331.008v170.581l-304.725 111.275-304.64-111.275zM492.629 510.933c10.197 0 18.475-8.277 18.475-18.475v-28.16h-36.949v28.16c0 10.24 8.277 18.475 18.475 18.475zM425.771 492.459v-28.16h-17.365v-136.533h168.405v136.533h-17.323v28.16c0 36.864-29.995 66.859-66.859 66.859s-66.859-29.995-66.859-66.859z" />
<glyph unicode="&#xe91b;" glyph-name="auth-fin" d="M307.712 797.995l185.813 67.84 185.856-67.84v-98.133c0-94.464-79.531-181.973-185.856-205.355-106.283 23.381-185.813 110.891-185.813 205.355v98.133zM488.789 445.995l4.693-0.896 4.821 0.939c130.816 26.283 229.504 135.381 229.504 253.824v131.968l-234.283 85.504-234.24-85.504v-131.968c0-118.443 98.688-227.541 229.504-253.867zM607.531 731.947l-35.243 33.152-103.083-109.525-56.32 48.171-31.445-36.736 91.349-78.208zM927.915 265.813c-18.894 69.792-81.647 120.295-156.2 120.32h-199.555c-50.261 0-93.867-35.413-101.547-82.432-0.851-4.886-1.337-10.512-1.337-16.252 0-24.547 8.897-47.016 23.642-64.359l-0.117 0.142c18.216-21.359 45.152-34.816 75.231-34.816 0.042 0 0.083 0 0.125 0h135.375v48.384h-135.381c-0.022 0-0.048 0-0.074 0-27.853 0-50.432 22.579-50.432 50.432 0 3.076 0.275 6.087 0.803 9.011l-0.046-0.307c3.84 23.893 26.965 41.813 53.76 41.813h199.509c51.328 0 96.341-34.645 109.44-84.309l50.347-191.019h-592.683c-0.068 0-0.149 0-0.23 0-32.336 0-61.611 13.11-82.799 34.304v0l-192.597 191.701c-9.119 9.144-14.757 21.764-14.757 35.7 0 17.001 8.391 32.043 21.259 41.209l0.155 0.105c19.627 14.123 48.64 10.453 67.584-8.448l163.072-163.115h96.725v48.341h-76.629l-148.949 148.949c-35.541 35.541-91.52 41.301-130.048 13.483-23.119-16.638-38.669-42.545-41.191-72.167l-0.025-0.366c-0.216-2.449-0.34-5.298-0.34-8.176 0-27.283 11.090-51.975 29.008-69.815l192.601-191.748c29.868-29.843 71.117-48.299 116.677-48.299 0.171 0 0.342 0 0.512 0.001h655.462l-66.347 251.733z" />
<glyph unicode="&#xe91c;" glyph-name="consult-fin" d="M826.349 347.629l-12.269-8.733 14.008-95.077-113.761 52.765-7.96-1.642c-18.876-3.922-37.598-5.661-60.648-5.661h-111.867c-171.259 0-310.639 139.419-310.639 310.736 0 171.336 139.38 310.697 310.658 310.697h111.848c171.278 0 310.658-139.361 310.658-310.678-0.107-103.67-50.989-195.434-129.112-251.777l-0.917-0.629zM397.273 61.546h-93.145c-18.934 0-34.314 1.43-49.732 4.598l-7.96 1.662-89.165-41.346 10.955 74.153-12.249 8.791c-67.777 48.302-106.651 123.769-106.651 206.964 0 92.682 50.485 176.534 130.299 221.532 29.599-168.979 176.978-297.926 354.246-297.926h105.588c-33.077-104.796-129.971-178.427-242.186-178.427zM1005.703 600.016c0 198.501-161.483 360.004-359.984 360.004h-111.867c-198.463 0-359.965-161.522-359.965-360.004 0-3.207 0.386-6.337 0.464-9.564-106.071-50.466-174.35-156.305-174.35-274.065 0.119-96.131 44.823-181.796 114.54-237.444l0.611-0.471-19.997-135.168 157.464 73.032c16.036-2.782 32.633-4.096 51.509-4.096h93.145c140.153 0 260.27 96.217 294.004 230.67 5.603 0.696 11.399 1.217 16.906 2.164l182.059-84.374-23.069 155.918c84.536 66.423 138.376 168.606 138.53 283.371v0.026zM407.146 683.829h193.729v49.307h-193.729zM407.146 578.164h365.259v49.287h-365.259zM407.146 472.537h280.827v49.268h-280.789z" />
<glyph unicode="&#xe91d;" glyph-name="fin-advantage-1" d="M788.48 852.185c-115.948 0-292.47-93.026-445.007-245.563-203.5-203.5-301.095-449.772-213.11-537.777 87.946-87.926 334.257 9.61 537.797 213.11 203.5 203.52 301.095 449.792 213.090 537.797-22.036 22.055-54.036 32.433-92.751 32.433zM223.173-12.288c-52.185 0-96.236 14.907-127.646 46.316-110.533 110.553-16.916 377.344 213.13 607.409 230.046 230.046 496.857 323.742 607.429 213.11 110.553-110.553 16.955-377.364-213.11-607.409-164.687-164.667-348.219-259.426-479.764-259.426zM788.322-12.583c-66.068 0-146.274 24.182-233.551 71.877l-5.79 3.19 43.441 32.492 3.387-1.753c127.212-65.378 234.594-75.225 285.44-24.379 87.985 88.025-9.59 334.257-213.11 537.797-35.319 35.402-72.898 68.505-112.518 99.091l-2.682 1.99-3.84 2.954 43.323 28.77 3.564-2.796c39.081-31.018 73.959-62.17 106.958-95.201l0.011-0.011c230.065-230.065 323.643-496.876 213.13-607.409-31.193-31.193-74.949-46.612-127.744-46.612zM423.030 146.196s-77.726 64.335-114.353 100.962c-230.026 230.046-323.643 496.817-213.11 607.409 69.652 69.632 204.13 60.318 360.546-24.852l6.046-3.348-46.297-31.961s-6.794 4.332-8.487 5.199c-123.294 61.243-227.742 69.396-277.012 20.145-87.985-88.025 9.61-334.277 213.11-537.797 38.216-38.327 79.085-73.951 122.33-106.595l2.913-2.107-45.706-27.057zM507.746 567.355l-88.615-101.593h65.378v-137.058h50.235v137.058h61.637z" />
<glyph unicode="&#xe91e;" glyph-name="fin-advantage-2" d="M494.848 31.252l-4.785 0.906c-252.967 47.183-445.558 252.062-448 476.475l-2.678 245.878 445.775 166.105 449.3-156.357 2.678-245.898c0.709-66.127-14.769-131.584-46.080-194.54l-44.052 21.937c27.766 55.926 41.531 113.782 40.901 172.071l-2.284 211.298-399.892 139.185-396.721-147.85 2.284-211.279c2.166-199.995 175.065-383.114 403.023-427.717 21.631 4.724 39.237 9.622 56.468 15.343l-3.909-1.125 19.791 10.575 23.158-43.461-25.6-13.194c-16.933-5.903-38.591-11.88-60.705-16.627l-3.906-0.703-4.766-1.024zM493.214 180.972l-4.785 0.906c-166.617 31.114-293.474 166.42-295.109 314.762l-1.772 164.194 295.247 110.041 297.551-103.582 1.831-164.194c0.453-42.831-9.334-85.268-29.086-126.070l-44.308 21.425c16.404 33.93 24.537 68.943 24.162 104.113l-1.418 129.615-248.162 86.39-246.213-91.766 1.378-129.615c1.378-123.943 108.623-237.588 250.289-266.023 2.954 0.591 5.376 1.024 7.483 1.398 6.853 1.241 9.157 1.654 18.885 5.238l16.975-46.238c-13.115-4.805-18.314-5.868-27.057-7.444-2.875-0.512-6.341-1.142-11.126-2.146l-4.766-0.985zM726.548 372.578h-1.969c-46.455-0.33-88.395-19.394-118.691-50.004l-0.014-0.014c-29.621-29.6-47.944-70.503-47.944-115.686 0-0.715 0.005-1.43 0.014-2.143l-0.001 0.108c0.451-45.876 19.723-87.163 50.451-116.581l0.060-0.057c32.177-31.074 75.087-47.399 119.769-47.419 92.908 1.024 167.66 76.268 166.656 167.739-0.458 45.884-19.736 87.178-50.471 116.601l-0.060 0.057c-30.303 29.338-71.657 47.42-117.234 47.42-0.206 0-0.412 0-0.617-0.001h0.032zM726.311-8.468c-0.221-0.001-0.482-0.001-0.744-0.001-58.836 0-112.217 23.355-151.378 61.3l0.057-0.055c-39.975 38.301-64.99 91.941-65.555 151.427l-0.001 0.105c-0.011 0.808-0.017 1.762-0.017 2.717 0 58.672 23.787 111.789 62.244 150.232l0.001 0.001c39.107 39.509 93.212 64.109 153.063 64.551h0.084c0.78 0.010 1.701 0.016 2.623 0.016 59.009 0 112.568-23.337 151.951-61.284l-0.068 0.065c39.972-38.308 64.981-91.956 65.535-151.449l0.001-0.103c1.3-118.607-95.311-216.162-215.355-217.502l-2.442-0.020zM976.049-57.856l-119.316 106.398 32.768 36.746 119.335-106.417z" />
<glyph unicode="&#xe91f;" glyph-name="fin-advantage-3" d="M748.308 441.186c-120.438 0-218.427-97.989-218.427-218.427s97.989-218.427 218.427-218.427c120.438 0 218.427 97.989 218.427 218.427s-97.989 218.427-218.427 218.427zM748.308-44.898c-147.574 0-267.658 120.084-267.658 267.658s120.084 267.658 267.658 267.658c147.574 0 267.658-120.084 267.658-267.658s-120.084-267.658-267.658-267.658zM721.684 224.158h52.204v57.403c-0.681 13.888-12.107 24.89-26.102 24.89s-25.421-11.002-26.1-24.829l-0.002-0.061v-57.403zM813.273 184.773h-130.974v96.788c0.045 36.148 29.331 65.441 65.472 65.497h0.005c36.163-0.034 65.471-29.335 65.516-65.492v-96.792zM649.846 106.043h194.895v145.29h-194.895zM515.111 111.911h-515.111v769.319h964.923v-503.375h-49.231v454.144h-866.462v-670.858h465.881zM26.25 649.177h908.623v49.231h-908.623zM163.643 491.638h374.607v49.231h-374.607zM114.412 735.271h49.231v49.231h-49.231zM212.874 735.271h49.231v49.231h-49.231zM311.335 735.271h49.231v49.231h-49.231zM163.643 373.484h236.761v49.231h-236.761z" />
<glyph unicode="&#xe920;" glyph-name="fin-advantage-4" d="M520.999 940.308v-214.843l107.402 107.422zM362.338 23.729l107.422-107.422v214.823zM503.198 566.272c-0.042 0-0.092 0-0.142 0-46.363 0-86.616-26.158-106.806-64.522l-0.317-0.66-6.105-11.697-13.135-1.418c-29.479-3.151-55.749-20.874-70.302-47.478-7.172-12.589-11.434-27.646-11.52-43.692v-0.025c0.056-50.706 41.14-91.797 91.838-91.865h252.363c39.991 0.034 72.403 32.438 72.448 72.424v0.004c0 14.572-4.549 28.751-13.194 40.999-12.254 17.438-31.693 29.113-53.922 30.707l-0.232 0.013-18.806 1.3-3.643 18.511c-11.423 55.867-60.133 97.314-118.539 97.398h-0.009zM639.055 255.685h-252.318c-77.785 0-141.076 63.271-141.076 141.095 0 23.355 5.908 46.001 17.526 67.348 19.825 35.987 53.934 62.031 94.486 70.649l0.923 0.164c30.388 48.653 83.646 80.542 144.352 80.542 0.094 0 0.189 0 0.283 0h-0.015c75.986-0.129 140.299-49.963 162.169-118.719l0.331-1.207c30.322-6.959 55.715-24.515 72.646-48.476l0.255-0.381c13.825-19.283 22.12-43.348 22.154-69.348v-0.008c-0.078-67.173-54.523-121.603-121.693-121.659h-0.005zM199.109 77.824c-97.954 83.111-159.705 206.304-159.705 343.921 0 0.119 0 0.239 0 0.358v-0.018c-0.020 248.635 202.22 450.895 450.836 450.895 21.366 0 42.929-1.516 64.020-4.529l-6.892-48.719c-17.137 2.557-36.916 4.017-57.036 4.017-0.025 0-0.050 0-0.076 0h0.004c-221.499 0-401.644-180.185-401.644-401.664 0-0.087 0-0.19 0-0.293 0-122.604 55.021-232.358 141.718-305.916l0.579-0.479-31.803-37.573zM529.073-28.751c-45.745 0-90.86 6.814-134.065 20.244l14.631 47.006c35.611-11.443 76.579-18.038 119.087-18.038 0.122 0 0.244 0 0.366 0h-0.018c221.479 0 401.644 180.185 401.644 401.644 0 132.352-65.221 256.197-174.474 331.284l27.884 40.566c118.896-82.412 195.787-218.148 195.82-371.844v-0.006c0-248.615-202.24-450.875-450.875-450.875z" />
<glyph unicode="&#xe921;" glyph-name="fin-advantage-5" d="M39.385 881.231v-599.237h644.175v49.231h-594.944v500.775h796.948v-479.193h49.231v528.423zM190.917 72.271h492.564v49.231h-492.564zM462.454 96.886h49.231v211.495h-49.231zM263.326 447.409l-34.816 34.836 132.884 132.884 86.548-86.548 204.662 204.642 93.066-93.086-34.796-34.796-58.27 58.27-204.642-204.642-86.548 86.528zM831.173-24.852c-85.642 0-172.308 28.495-172.308 82.983v236.308h49.231v-236.308c2.206-9.984 46.789-33.753 123.077-33.753 76.308 0 120.871 23.769 123.097 33.93l-0.020 236.13h49.231v-236.308c0-54.489-86.666-82.983-172.308-82.983zM831.173 328.192c-76.288 0-120.871-23.769-123.097-33.93 2.225-9.807 46.809-33.575 123.097-33.575 75.894 0 120.379 23.532 123.057 33.753-2.678 10.24-47.163 33.753-123.057 33.753zM831.173 211.456c-85.642 0-172.308 28.514-172.308 82.983 0 54.489 86.666 82.983 172.308 82.983s172.308-28.495 172.308-82.983c0-54.469-86.666-82.983-172.308-82.983zM831.173 132.687c-85.642 0-172.308 28.495-172.308 82.983h49.231c2.206-9.984 46.789-33.753 123.077-33.753 76.308 0 120.871 23.769 123.097 33.93l49.211-0.177c0-54.489-86.666-82.983-172.308-82.983zM831.173 53.918c-85.642 0-172.308 28.495-172.308 82.983h49.231c2.206-9.984 46.789-33.753 123.077-33.753 76.308 0 120.871 23.769 123.097 33.93l49.211-0.177c0-54.489-86.666-82.983-172.308-82.983z" />
<glyph unicode="&#xe922;" glyph-name="finService-security-1" d="M490.953 111.25h45.714v273.81h-45.714zM928.53 129.682h-45.714v112.329h-737.353v-112.329h-45.714v158.043h828.782zM264.43 812.763v-130.56c0-124.526 106.898-239.835 249.381-269.842 142.482 29.989 249.362 145.335 249.362 269.861v130.542l-249.344 89.527-249.399-89.527zM513.829 365.733l-4.425 0.878c-165.705 32.677-290.67 168.375-290.67 315.611v162.688l295.095 105.947 295.077-105.947v-162.688c0-147.237-124.965-282.917-290.651-315.611l-4.425-0.878zM483.895 548.37l-113.371 97.061 29.696 34.706 80.274-68.699 141.038 149.87 33.298-31.323zM18.286-60.873v208.622h208.622v-208.622h-208.622zM64-15.159h117.193v117.193h-117.193v-117.193zM410.459-60.873v208.622h208.622v-208.622h-208.622zM456.174-15.159h117.193v117.193h-117.193v-117.193zM801.371-60.873v208.622h208.622v-208.622h-208.622zM847.086-15.159h117.193v117.193h-117.193v-117.193z" />
<glyph unicode="&#xe923;" glyph-name="period" d="M894.635 394.24c-6.242-91.029-42.216-172.628-98.172-236.217l0.38 0.441-40.277 40.277-37.973-37.973 40.235-40.32c-63.122-55.588-144.717-91.554-234.507-97.682l-1.226-0.067v99.755h-53.76v-99.755c-91.031 6.189-172.642 42.156-236.215 98.128l0.439-0.379 40.277 40.32-37.973 37.973-40.32-40.277c-55.576 63.147-91.55 144.747-97.724 234.54l-0.068 1.236h99.84v53.76h-99.883c6.242 91.029 42.216 172.628 98.172 236.217l-0.38-0.441 40.32-40.32 37.973 38.016-40.277 40.277c63.142 55.614 144.768 91.597 234.593 97.725l1.226 0.067v-99.755h53.76v99.755c91.020-6.215 172.613-42.195 236.171-98.17l-0.438 0.378-40.277-40.277 38.016-38.016 40.277 40.32c55.576-63.147 91.55-144.747 97.724-234.54l0.068-1.236h-99.755v-53.76h99.755zM496.213 874.667c-250.112 0-453.547-203.477-453.547-453.547s203.435-453.547 453.547-453.547c250.069 0 453.547 203.477 453.547 453.547s-203.477 453.547-453.547 453.547zM523.093 501.76v132.693h-53.76v-132.693c-34.504-11.357-58.973-43.292-58.973-80.943 0-46.963 38.071-85.035 85.035-85.035 0.288 0 0.575 0.001 0.863 0.004h-0.044c7.824-2.623 16.834-4.136 26.197-4.136 46.963 0 85.035 38.071 85.035 85.035 0 46.723-37.683 84.645-84.315 85.032h-0.037z" />
<glyph unicode="&#xe924;" glyph-name="review" d="M896 191.616h-804.949v506.283h533.291v-94.72c-21.938-23.163-35.454-54.496-35.541-88.985v-0.017c0-34.56 13.696-65.707 35.541-89.045v-166.997l95.317 53.76 95.317-53.76v166.955c21.957 23.184 35.478 54.551 35.541 89.075v0.013c0 34.475-13.653 65.664-35.541 89.045v94.677h81.024v-506.283zM766.592 635.947c-13.899 5.638-30.016 8.951-46.895 9.045h-0.038c-16.555 0-32.299-3.413-46.933-9.045v61.952h93.867v-61.952zM672.725 392.32c14.635-5.589 30.379-9.003 46.933-9.003 16.597 0 32.341 3.413 46.933 9.045v-51.371l-46.933 26.453-46.933-26.453v51.371zM802.133 514.219c-0.048-45.539-36.939-82.444-82.468-82.517h-0.007c-45.535 0.073-82.426 36.979-82.475 82.513v0.005c0 45.44 36.992 82.475 82.475 82.475s82.475-37.035 82.475-82.475zM814.976 746.325v0.341h-190.635v-0.427h-581.675v-603.008h901.717v603.051h-129.408zM192.981 543.872h341.333v48.384h-341.333zM192.981 418.731h341.333v48.384h-341.333zM192.981 293.547h341.333v48.341h-341.333z" />
<glyph unicode="&#xe925;" glyph-name="workforce" d="M794.069 1.152c-79.231 0.097-143.434 64.3-143.531 143.521v0.009c0.073 79.249 64.285 143.476 143.521 143.573h0.009c79.254-0.097 143.476-64.319 143.573-143.564v-0.009c-0.121-79.236-64.334-143.434-143.564-143.531h-0.009zM485.333 577.579c-0.073-52.699-42.786-95.397-95.483-95.445h-0.005c-52.699 0.073-95.397 42.786-95.445 95.483v0.005c0.073 52.684 42.762 95.373 95.438 95.445h0.007c52.702-0.049 95.415-42.747 95.488-95.438v-0.007zM188.203 307.243h-138.069c11.136 120.064 86.101 217.259 171.733 217.259 12.8 0 25.173-2.261 37.163-5.973 10.667-23.467 27.349-43.563 48.213-58.283-52.608-28.8-95.445-83.968-119.040-153.045zM126.421 668.373c0.073 52.684 42.762 95.373 95.438 95.445h0.007c42.155 0 77.44-27.733 90.027-65.707-39.812-25.906-65.789-70.155-65.877-120.478v-0.013c0-0.427 0.128-0.853 0.128-1.195-7.68-2.133-15.787-3.499-24.277-3.499-52.684 0.073-95.373 42.762-95.445 95.438v0.007zM804.267 335.573v539.179h-438.613v-155.733c-4.373-0.746-7.39-1.355-10.383-2.025l1.465 0.276c-20.47 55.774-73.069 94.869-134.813 94.976h-0.013c-79.414-0.073-143.775-64.419-143.872-143.82v-0.009c0-48.512 24.32-91.307 61.184-117.333-79.317-43.477-136.619-146.987-138.795-267.648l-0.427-24.619h175.531c-4.054-19.637-6.625-42.424-7.118-65.722l-0.007-0.412-0.427-24.619h53.888v-0.213h127.147v-64.043l106.069 88.405-106.112 88.405v-64.213h-130.859c11.136 120.107 86.101 217.344 171.733 217.344 89.003 0 164.779-96.896 172.459-220.587l48.299 2.987c-7.040 112.981-61.568 205.227-137.088 244.907 36.527 26.269 60.060 68.616 60.16 116.464v0.016c-0.111 70.789-51.36 129.575-118.775 141.4l-0.862 0.125v107.264h341.845v-493.568c-87.149-18.343-151.88-93.873-153.427-184.793l-0.002-0.167h-125.184l-58.027-48.384h188.885c20.48-83.925 95.787-146.645 185.941-146.645 105.97 0.097 191.854 85.952 192 191.901v0.014c0 102.357-80.811 185.472-181.76 190.933zM794.112 103.765c-0.558-0.027-1.212-0.043-1.869-0.043-22.622 0-40.96 18.338-40.96 40.96s18.338 40.96 40.96 40.96c0.657 0 1.311-0.015 1.961-0.046l-0.092 0.003c21.803-1.027 39.091-18.953 39.091-40.917s-17.288-39.891-38.999-40.914l-0.092-0.003zM875.691 144.683c0 5.035-0.64 9.941-1.493 14.72l28.843 25.173-36.395 41.685-21.333-18.56c-6.616 5.456-14.286 9.954-22.61 13.125l-0.558 0.187v33.067h-55.339v-32.853c-9.198-3.333-17.146-7.915-24.12-13.638l0.142 0.113-21.248 18.56-36.395-41.643 28.843-25.216c-0.937-4.586-1.473-9.856-1.473-15.252 0-5.626 0.583-11.116 1.692-16.413l-0.091 0.518-29.013-23.68 34.987-42.837 23.595 19.2c6.912-5.461 14.635-9.813 23.040-12.8v-32.853h55.381v33.067c8.192 2.987 15.616 7.253 22.315 12.587l23.552-19.2 34.987 42.837-29.013 23.68c1.109 5.333 1.707 10.795 1.707 16.427z" />
<glyph unicode="&#xe926;" glyph-name="concentration" d="M752.853 21.845c-106.325 23.424-185.813 110.933-185.813 205.355v98.176l185.813 67.84 185.813-67.84v-98.176c0-94.421-79.531-181.931-185.813-205.355zM493.483 17.707c-237.184 0-402.475 77.184-402.475 146.475v81.536c72.96-63.104 221.952-104.533 402.517-104.533 14.421 0 28.16 0.768 42.197 1.323 18.261-44.8 50.688-84.523 91.947-115.029-41.6-5.717-85.76-9.771-134.187-9.771zM91.008 417.579c72.96-63.104 221.952-104.491 402.475-104.491 8.576 0 16.768 0.427 25.173 0.725v-86.613c0-12.416 1.621-24.661 3.712-36.821-9.515-0.299-18.944-0.811-28.885-0.811-237.184 0-402.475 77.184-402.475 146.475v81.536zM91.008 589.483c72.96-63.104 221.952-104.533 402.517-104.533s329.557 41.429 402.475 104.533v-81.536c0-29.312-29.867-59.904-81.92-85.589l-61.227 22.357-225.28-82.261c-11.307-0.341-22.357-1.024-34.091-1.024-237.184 0-402.475 77.227-402.475 146.517v81.536zM493.525 826.283c237.099 0 402.475-77.184 402.475-146.475s-165.333-146.475-402.517-146.475c-237.184 0-402.475 77.184-402.475 146.475s165.333 146.475 402.475 146.475zM873.301 400.725c8.277 5.419 15.915 11.008 22.699 16.853v-25.131l-22.699 8.277zM944.384 374.784v305.024c0 111.061-193.877 194.859-450.901 194.859s-450.816-83.797-450.816-194.859v-515.627c0-111.104 193.835-194.859 450.859-194.859 74.027 0 142.293 7.211 202.667 19.797 16.64-6.571 33.835-12.075 51.883-15.701l4.736-0.939 4.779 0.939c130.816 26.24 229.461 135.381 229.461 253.781v132.011l-42.667 15.573zM728.491 182.955l-56.32 48.213-31.403-36.779 91.307-78.165 134.741 143.104-35.243 33.152z" />
<glyph unicode="&#xe927;" glyph-name="economical-use" d="M733.781 405.291c-116.736 0-198.144 52.139-198.144 98.901s81.408 98.859 198.144 98.859 198.144-52.096 198.144-98.859-81.408-98.901-198.144-98.901zM931.925 380.245c0-46.763-81.408-98.901-198.144-98.901s-198.144 52.139-198.144 98.901v35.584c44.544-35.925 115.968-58.923 198.144-58.923s153.6 22.997 198.144 58.923v-35.584zM931.925 256.299c0-46.763-81.408-98.901-198.144-98.901s-198.144 52.139-198.144 98.901v35.584c44.544-35.925 115.968-58.923 198.144-58.923s153.6 22.997 198.144 58.923v-35.584zM487.339 244.181c0-46.805-81.451-98.901-198.187-98.901s-198.101 52.096-198.101 98.901v35.584c44.501-35.925 115.925-58.923 198.101-58.923s153.6 22.997 198.144 58.923v-35.584zM487.339 120.235c0-46.763-81.451-98.901-198.187-98.901s-198.101 52.139-198.101 98.901v35.541c44.501-35.883 115.925-58.88 198.101-58.88s153.6 22.997 198.144 58.88v-35.541zM289.152 466.987c116.736 0 198.144-52.096 198.144-98.901 0-46.763-81.408-98.859-198.144-98.859s-198.101 52.096-198.101 98.859c0 46.805 81.365 98.901 198.101 98.901zM239.232 600.448c44.544-35.925 115.925-58.923 198.144-58.923 20.651 0 40.619 1.493 59.733 4.224-6.088-12.125-9.699-26.406-9.813-41.52v-47.739c-44.544 35.925-115.968 58.88-198.144 58.88-0.161 0-0.353 0-0.544 0-17.4 0-34.554-1.054-51.402-3.102l2.026 0.201v87.979zM239.232 724.395c44.544-35.925 115.925-58.923 198.144-58.923 82.176 0 153.6 22.997 198.101 58.923v-35.584c0-46.805-81.365-98.901-198.101-98.901-116.779 0-198.144 52.096-198.144 98.901v35.584zM437.376 911.616c116.736 0 198.101-52.096 198.101-98.901 0-46.763-81.365-98.859-198.101-98.859-116.779 0-198.144 52.096-198.144 98.859 0 46.805 81.365 98.901 198.144 98.901zM733.781 651.435c-0.161 0-0.353 0-0.544 0-17.4 0-34.554-1.054-51.402-3.102l2.026 0.201v164.181c0 82.603-108.288 147.285-246.485 147.285-138.24 0-246.528-64.683-246.528-147.285v-309.163c-87.893-22.272-148.181-73.856-148.181-135.467v-247.851c0-82.603 108.245-147.285 246.485-147.285s246.485 64.683 246.485 147.285v47.701c44.544-35.925 115.968-58.88 198.144-58.88 138.24 0 246.485 64.683 246.485 147.243v247.893c0 82.56-108.245 147.243-246.485 147.243z" />
<glyph unicode="&#xe928;" glyph-name="external-if" d="M885.76 341.333c-45.53 0.049-82.426 36.945-82.475 82.47v0.005c0 45.483 36.992 82.475 82.475 82.475s82.475-36.992 82.475-82.475c-0.049-45.53-36.945-82.426-82.47-82.475h-0.005zM593.152 375.552c-14.844-27.933-41.394-47.966-72.929-53.666l-0.628-0.094c-5.349-1.111-11.506-1.762-17.811-1.792h-0.023c-9.519 0.148-18.65 1.556-27.314 4.064l0.732-0.181c-1.451 0.384-2.816 0.853-4.267 1.323-32.403 10.353-57.424 35.36-67.594 67.023l-0.203 0.732-1.28 4.224c-2.338 7.954-3.734 17.105-3.839 26.565l-0.001 0.059c0 0.939 0.256 1.792 0.256 2.688 0.895 32.293 16.484 60.77 40.291 79.095l0.242 0.179c5.547 4.309 11.435 8.021 17.749 11.093 0.256 0.085 0.427 0.213 0.597 0.341 13.611 6.485 28.587 10.411 44.629 10.411 18.091 0 34.773-4.992 49.579-13.099l2.048-1.152c15.787-9.131 28.8-22.144 37.973-37.888l1.109-2.133c8.107-14.763 13.141-31.488 13.141-49.536-0.125-17.709-4.726-34.316-12.726-48.782l0.267 0.526zM440.704 807.808c0 33.707 27.435 61.141 61.141 61.141s61.141-27.435 61.141-61.141-27.52-61.141-61.227-61.141c-33.707 0-61.099 27.435-61.099 61.141zM666.368 83.413c7.286 26.311 31.018 45.307 59.186 45.307 5.58 0 10.986-0.745 16.124-2.142l-0.43 0.1c26.319-7.229 45.335-30.941 45.335-59.096 0-5.613-0.756-11.050-2.171-16.214l0.1 0.429v-0.043c-4.318-15.983-14.581-29.055-28.211-36.965l-0.29-0.155c-8.735-5.142-19.242-8.18-30.459-8.18-5.663 0-11.146 0.774-16.347 2.223l0.428-0.102c-15.97 4.321-29.036 14.565-36.964 28.17l-0.156 0.289c-5.178 8.759-8.238 19.302-8.238 30.559 0 5.627 0.764 11.075 2.195 16.247l-0.101-0.427zM203.136 64c-33.707 0-61.141 27.435-61.141 61.141s27.435 61.141 61.141 61.141 61.141-27.435 61.141-61.141-27.477-61.141-61.184-61.141zM210.475 501.845c-5.82-21.555-19.645-39.19-38.010-49.881l-0.39-0.21c-11.118-5.948-24.32-9.442-38.339-9.442-45.597 0-82.56 36.963-82.56 82.56 0 29.224 15.184 54.902 38.094 69.574l0.33 0.198c11.806 6.929 26.001 11.020 41.153 11.020 7.61 0 14.98-1.032 21.975-2.965l-0.578 0.136c35.482-9.775 61.111-41.757 61.111-79.725 0-7.563-1.017-14.888-2.921-21.846l0.135 0.579zM885.76 554.667c-63.624-0.142-116.585-45.623-128.293-105.841l-0.134-0.826h-105.813c-10.743 64.55-60.982 114.803-124.637 125.445l-0.888 0.123v127.616c49.144 11.43 85.221 54.798 85.333 106.611v0.013c-0.073 60.475-49.090 109.477-109.563 109.525h-0.005c-60.46-0.073-109.452-49.065-109.525-109.518v-0.007c0-52.053 36.565-95.573 85.333-106.624v-127.616c-51.284-8.496-93.31-41.633-114.042-86.607l-0.39-0.945-101.973 27.307c0.235 2.943 0.369 6.372 0.369 9.832 0 60.18-40.584 110.881-95.875 126.228l-0.921 0.218c-10.207 2.885-21.929 4.543-34.039 4.543-24.071 0-46.612-6.553-65.936-17.972l0.604 0.33c-29.728-17.293-51.635-45.263-60.634-78.537l-0.209-0.908v0.043c-2.815-10.136-4.432-21.775-4.432-33.792 0-72.364 58.661-131.026 131.024-131.029v0c22.656 0 45.056 5.931 65.237 17.579 22.808 13.321 40.809 32.694 52.098 55.931l0.339 0.773 102.4-27.435c-0.555-5.12-1.579-10.069-1.579-15.317 0-33.237 11.008-63.787 29.184-88.832l-117.461-117.419c-16.459 10.688-36.579 17.061-58.185 17.109h-0.013c-60.478-0.048-109.495-49.050-109.568-109.518v-0.007c0.073-60.475 49.090-109.477 109.563-109.525h0.005c60.441 0.097 109.41 49.080 109.483 109.518v0.007c0 21.461-6.4 41.301-17.067 58.197l117.419 117.419c24.564-18.129 55.414-29.048 88.81-29.141h0.022c21.547 0 42.027 4.651 60.587 12.8l88.192-137.515c-14.506-13.429-25.277-30.695-30.71-50.186l-0.18-0.758c-2.405-8.529-3.788-18.325-3.788-28.443 0-20.142 5.48-39.005 15.030-55.177l-0.276 0.506c14.465-24.891 37.845-43.253 65.669-50.852l0.763-0.178c8.537-2.406 18.342-3.789 28.469-3.789 20.128 0 38.981 5.464 55.155 14.989l-0.509-0.277c24.918 14.483 43.297 37.895 50.895 65.754l0.177 0.764c2.351 8.474 3.702 18.205 3.702 28.251 0 50.434-34.049 92.916-80.414 105.712l-0.77 0.181c-8.342 2.304-17.92 3.628-27.808 3.628-12.102 0-23.741-1.984-34.609-5.644l0.764 0.223-89.259 139.307c25.192 22.553 42.729 53.196 48.518 87.818l0.122 0.886h105.813c11.842-61.044 64.802-106.525 128.411-106.667h0.015c72.242 0.073 130.786 58.617 130.859 130.852v0.007c-0.073 72.242-58.617 130.786-130.852 130.859h-0.007z" />
<glyph unicode="&#xe929;" glyph-name="info-protect" d="M193.536 501.504h426.795v48.384h-426.795zM193.536 376.32h212.011v48.384h-212.011zM193.536 251.136h212.011v48.384h-212.011zM897.621 224.043c0-44.8-18.347-87.808-48.555-123.392l-251.307 247.808 114.048 41.643 185.813-67.883v-98.133zM711.808 18.731c-106.24 23.381-185.856 110.933-185.856 205.355v98.133l21.504 7.851 266.837-263.040c-28.746-22.627-63.187-39.426-100.767-47.97l-1.719-0.329zM133.717 826.283h378.453v-174.080h174.123v-219.947l-208.725-76.203v-131.968c0-81.365 47.232-157.653 118.784-206.379h-462.635v808.533zM560.555 792.107l91.52-91.563h-91.52v91.563zM734.677 433.237v253.141l-188.288 188.288h-461.056v-905.387l626.475 0.043 4.736 0.981c130.816 26.24 229.461 135.339 229.461 253.781v131.968l-211.328 77.184z" />
<glyph unicode="&#xe92a;" glyph-name="analysis-tool" d="M896 221.525h-804.949v187.648h490.965l0.853-1.067 1.408 1.067h311.723v-187.648zM91.051-14.805v187.947h804.949v-187.947h-804.949zM645.845 664.491c-0.012-21.988-17.84-39.808-39.829-39.808-21.997 0-39.829 17.832-39.829 39.829 0 0.008 0 0.015 0 0.023v-0.001c0 21.997 17.832 39.829 39.829 39.829s39.829-17.832 39.829-39.829v0zM327.68 590.080c-0.024-21.991-17.857-39.808-39.851-39.808-22.009 0-39.851 17.842-39.851 39.851 0 0.015 0 0.030 0 0.045v-0.002c0.024 21.991 17.857 39.808 39.851 39.808 22.009 0 39.851-17.842 39.851-39.851 0-0.015 0-0.030 0-0.045v0.002zM434.048 821.547v-100.821l-91.221-62.251c-14.842 12.228-34.017 19.682-54.93 19.797h-0.025c-48.678-0.073-88.119-39.514-88.192-88.185v-0.007c0-48.64 39.552-88.192 88.192-88.192 48.669 0.073 88.101 39.519 88.149 88.187v0.005c0 10.155-2.048 19.84-5.248 28.928l111.659 76.117v130.645c3.712 0.085 7.339 0.512 11.093 0.512 0.292 0.001 0.639 0.001 0.985 0.001 121.063 0 229.737-53.047 304.045-137.165l0.378-0.436h-108.501c-10.786 37.149-44.452 63.866-84.379 64h-0.015c-48.678-0.073-88.119-39.514-88.192-88.185v-0.007c0-48.64 39.552-88.192 88.192-88.192 40.192 0 73.813 27.179 84.395 64h144.768c33.702-51.775 55.448-114.165 59.927-181.281l0.062-1.162h-247.253l71.893 54.997h96.512v48.299h-112.896l-135.211-103.253h-143.957l109.952 82.389-29.056 38.699-161.536-121.131h-251.819c11.776 185.813 156.587 336.683 342.229 363.691zM943.104 457.856c-13.099 231.893-209.408 416.853-449.579 416.853-248.619-0.043-450.859-198.016-450.859-441.387v-496.469h901.717v521.003h-1.28zM654.464 285.867h128v48.384h-128zM654.464 52.907h128v48.384h-128z" />
<glyph unicode="&#xe92b;" glyph-name="api" d="M251.008 353.749h10.411l-0.683 48.384h-9.515c-29.312 0.128-58.709 13.909-81.067 40.491-22.191 26.815-35.851 61.4-36.436 99.158l-0.002 0.127c-0.018 0.962-0.029 2.098-0.029 3.235 0 92.985 69.612 169.712 159.565 180.909l0.89 0.090 12.843 1.579 5.803 11.605c38.801 76.518 116.369 128.332 206.163 129.619l0.173 0.002c109.909 2.944 209.664-76.373 232.96-185.6l3.84-18.133 18.475-1.024c84.053-4.523 139.093-54.827 140.203-128.171 1.195-80-44.8-132.395-116.907-133.547-0.683 0-10.837-0.085-27.989-0.427l0.768-48.299 27.563 0.384c98.688 1.493 166.528 76.587 164.949 182.613-1.451 93.696-68.139 161.877-167.936 174.208-34.789 120.067-143.759 206.361-272.883 206.361-1.325 0-2.647-0.009-3.968-0.027l0.2 0.002c-104.033-1.471-194.305-58.988-242.127-143.658l-0.732-1.409c-108.83-19.874-190.242-113.956-190.242-227.052 0-1.402 0.013-2.801 0.037-4.198l-0.003 0.21c0.725-47.36 18.133-94.635 47.787-129.792 32-37.845 72.96-57.387 117.888-57.643zM524.16 7.808c-33.707 0-61.141 27.435-61.141 61.141s27.435 61.141 61.141 61.141 61.141-27.435 61.141-61.141-27.435-61.141-61.141-61.141zM548.352 175.573v305.749h-48.384v-305.749c-49.158-11.433-85.242-54.823-85.333-106.656v-0.010c0.097-60.441 49.080-109.41 109.518-109.483h0.007c60.46 0.073 109.452 49.065 109.525 109.518v0.007c0 52.053-36.608 95.573-85.333 106.624zM194.859 133.419c-33.707 0-61.141 27.435-61.141 61.141s27.435 61.141 61.141 61.141 61.141-27.435 61.141-61.141-27.435-61.141-61.141-61.141zM348.501 213.333h-46.037c-9.203 51.817-53.849 90.676-107.592 90.795h-0.013c-60.475-0.073-109.477-49.090-109.525-109.563v-0.005c0.073-60.46 49.065-109.452 109.518-109.525h0.007c49.746 0.167 91.653 33.538 104.728 79.101l0.189 0.771h97.109v316.416h-48.384v-267.989zM853.504 133.419c-33.707 0-61.141 27.435-61.141 61.141s27.435 61.141 61.141 61.141 61.141-27.435 61.141-61.141-27.435-61.141-61.141-61.141zM853.504 304.085c-53.757-0.119-98.403-38.978-107.508-90.133l-0.098-0.661h-46.080v268.032h-48.299v-316.416h97.109c13.264-46.334 55.171-79.705 104.898-79.872h0.019c60.46 0.073 109.452 49.065 109.525 109.518v0.007c-0.073 60.46-49.065 109.452-109.518 109.525h-0.007z" />
<glyph unicode="&#xe92c;" glyph-name="prod-businessApplication-workbox_useful_features" d="M444.16 119.467l-374.187 261.973v200.107l374.187-261.547 366.507 256v-145.067c16.498-3.413 32.654-8.42 48.213-14.933v218.88l-420.693 295.253-416.427-289.28v-284.587l422.4-295.68 99.84 69.547c-5.404 16.754-8.846 34.076-10.24 51.627l-89.6-62.293zM444.16 379.307l-164.267 114.773 158.72 117.333 170.667-118.613-165.12-113.493zM438.187 871.253l356.267-248.747-143.787-100.267-213.333 148.907-199.253-147.627-150.187 104.533 350.293 243.2zM677.973 282.027v0 0.427zM860.587 416c-16.1 6.628-32.825 11.605-49.92 14.933-14.080 2.617-28.359 4.039-42.667 4.267-129.508-0.228-234.439-105.159-234.667-234.667v-18.773c1.394-17.55 4.836-34.873 10.24-51.627 32.455-103.424 131.556-171.15 239.701-163.84 108.146 7.282 197.234 87.723 215.495 194.56 18.29 106.866-39.026 212.338-138.61 255.147h0.427zM768 14.080c-102.315 1.593-184.86 84.139-186.453 186.453v15.36c7.964 96.199 88.206 170.325 184.747 170.667 15.161-0.142 30.208-2.276 44.8-6.4 16.896-4.295 33.109-10.923 48.213-19.627 72.647-41.813 108.231-127.118 86.898-208.156-21.362-81.067-94.407-137.728-178.204-138.297zM921.6 198.4l14.080 14.507-80.213 114.773h-172.8l-80.213-114.773 14.080-14.507 151.467-154.453 152.747 154.453h0.853zM708.267 279.467h122.88l27.733-39.68h-179.2l28.587 39.68zM690.773 192h156.16l-78.933-79.787-77.227 79.787z" />
<glyph unicode="&#xe92d;" glyph-name="cloud-log-analytics" d="M215.552 380.501h48.384v128h-48.384zM342.229 380.501h48.384v213.333h-48.384zM794.667 64h-322.517c-68.759 0.121-124.466 55.828-124.587 124.575v0.011c0 20.48 5.248 40.448 15.659 59.392 19.202 35.137 53.997 59.673 94.829 64.373l0.574 0.054 12.928 1.365 5.973 11.52c27.455 52.213 81.325 87.211 143.369 87.211 0.057 0 0.114 0 0.17 0h-0.009c78.139-0.109 143.294-55.565 158.371-129.261l0.178-1.043 3.584-18.176 18.475-1.28c29.952-2.133 57.173-17.493 74.667-42.325 11.861-16.896 18.133-36.48 18.133-56.576 0-55.040-44.715-99.84-99.84-99.84zM320.768 271.189c-6.502-11.528-11.999-24.874-15.801-38.917l-0.284-1.232h-213.675v552.533h803.968v-511.787c-19.411 18.188-43.883 31.2-71.078 36.705l-0.943 0.159c-10.303 35.061-28.452 65.116-52.491 89.313l0.011-0.011v153.131h-48.341v-116.523c-22.647 12.583-49.193 21.226-77.421 24.241l-0.915 0.079v220.331h-48.341v-219.947c-29.207-3.601-55.658-12.69-79.229-26.226l1.021 0.541v117.589h-48.384v-156.075c-10.496-11.093-20.053-23.040-28.117-36.395-52.178-10.067-95.246-42.454-119.57-86.616l-0.451-0.894zM42.667 832v-649.387h257.109c3.157-92.459 79.104-166.997 172.373-166.997h322.517c81.833 0.073 148.151 66.391 148.224 148.217v0.007h0.469v668.16h-900.693z" />
<glyph unicode="&#xe92e;" glyph-name="cloud-search" d="M522.88 308.139c-17.872 85.849-92.771 149.473-182.582 149.76h-0.031c-39.296 0-76.373-12.629-107.179-34.475-16.089 34.437-25.477 74.77-25.477 117.296 0 156.16 126.592 282.752 282.752 282.752 78.104 0 148.811-31.668 199.983-82.863l0.001-0.001c51.206-51.194 82.879-121.924 82.879-200.052 0-118.689-73.096-220.305-176.727-262.288l-1.896-0.679c-19.221 17.028-43.982 28.2-71.266 30.518l-0.456 0.031zM512.981 109.739h-320.768c-54.362 0.218-98.347 44.337-98.347 98.73 0 0.060 0 0.121 0 0.181v-0.009c0 16.043 4.139 31.872 12.416 47.061 15.058 27.842 42.486 47.329 74.716 51.155l0.463 0.045 26.453 2.773 12.373 23.723c1.024 2.133 2.475 4.011 3.627 6.059 9.088 15.488 20.864 28.8 34.56 39.339 22.39 17.384 50.884 27.878 81.829 27.904h0.006c65.451-0.274 119.938-46.879 132.377-108.7l0.146-0.868 7.381-37.376 37.973-2.603c22.864-1.719 42.621-13.675 54.882-31.249l0.158-0.239c1.707-2.347 2.432-5.077 3.84-7.595 5.803-10.667 9.643-22.187 9.643-34.219 0-40.917-33.067-74.155-73.728-74.155zM743.765 323.285c112.555 131.157 107.008 329.387-17.152 453.547-60.144 60.436-143.387 97.836-235.367 97.836-0.339 0-0.678-0.001-1.016-0.002h0.052c-0.275 0.001-0.6 0.001-0.925 0.001-91.972 0-175.205-37.419-235.305-97.863l-0.016-0.016c-105.557-105.515-125.525-264.704-60.117-390.613-6.691-8.337-12.913-17.678-18.28-27.552l-0.493-0.992c-49.479-5.967-90.988-35.415-113.53-76.703l-0.39-0.779c-11.616-20.619-18.488-45.254-18.56-71.488v-0.022c0-0.038 0-0.083 0-0.129 0-82.686 66.897-149.748 149.521-150.015h320.794c69.043 0.218 124.928 56.239 124.928 125.311 0 0.015 0 0.030 0 0.046v-0.002c0 17.92-4.181 35.413-11.691 51.627 31.136 14.044 57.95 31.333 81.779 51.977l-0.413-0.35 195.883-195.925 36.181 36.267-195.883 195.84zM577.92 564.053c-6.199-6.050-10.044-14.489-10.044-23.825 0-18.38 14.9-33.28 33.28-33.28 9.337 0 17.775 3.845 23.819 10.037l0.007 0.007c5.847 5.992 9.455 14.192 9.455 23.236 0 18.38-14.9 33.28-33.28 33.28-9.043 0-17.244-3.607-23.243-9.461l0.007 0.007zM469.205 564.053c-6.186-6.048-10.022-14.478-10.022-23.804 0-18.38 14.9-33.28 33.28-33.28 9.347 0 17.794 3.853 23.839 10.058l0.007 0.007c5.835 5.989 9.434 14.182 9.434 23.215 0 18.38-14.9 33.28-33.28 33.28-9.054 0-17.264-3.616-23.264-9.482l0.006 0.006zM358.571 564.053c-6.017-6.017-9.738-14.328-9.738-23.509 0-18.362 14.885-33.247 33.247-33.247 9.181 0 17.493 3.721 23.509 9.738v0h0.043c5.564 5.934 8.982 13.939 8.982 22.742 0 18.38-14.9 33.28-33.28 33.28-8.814 0-16.827-3.426-22.781-9.019l0.018 0.016z" />
<glyph unicode="&#xe92f;" glyph-name="monitoring" d="M42.667 832h901.717v-603.093h-426.667v-163.115h274.475v-48.384h-597.333v48.384h274.475v163.115h-426.667v603.093zM91.051 277.333h804.949v506.24h-804.949v-506.24zM454.059 476.117l-87.253 87.253-133.547-133.547 34.176-34.219 99.413 99.371 87.211-87.296 206.336 206.379 59.221-59.179 34.219 34.133-93.44 93.44z" />
<glyph unicode="&#xe930;" glyph-name="rua" d="M42.667 57.6v817.067h901.717v-817.067h-901.717zM91.051 661.803h804.949v164.48h-804.949v-164.48zM91.051 105.984h804.949v507.435h-804.949v-507.435zM154.752 716.8h51.413v51.328h-51.413zM250.88 716.8h51.413v51.328h-51.413zM346.965 716.8h51.413v51.328h-51.413zM687.701 205.995h48.384v217.6h-48.384zM597.76 205.995h48.384v132.949h-48.384zM777.685 205.995h48.384v303.701h-48.384zM360.661 214.443c-80.872 0.097-146.402 65.642-146.475 146.511v0.007c0.159 72.196 52.57 132.103 121.415 143.919l0.868 0.123v-164.949h168.533c-10.24-70.827-70.741-125.568-144.341-125.568zM504.363 388.437h-119.509v116.565c60.37-10.431 107.559-56.644 119.312-115.632l0.155-0.933zM360.704 555.776c-107.568-0.121-194.737-87.29-194.859-194.847v-0.012c0.121-107.568 87.29-194.737 194.847-194.859h0.012c107.568 0.121 194.737 87.29 194.859 194.847v0.012c-0.121 107.568-87.29 194.737-194.847 194.859h-0.012z" />
<glyph unicode="&#xe931;" glyph-name="search-trend" d="M236.715 381.184h48.384v128h-48.384zM363.349 381.184h48.384v237.483h-48.384zM860.672 184.277l137.173-145.408-34.133-34.261-137.344 145.536c-41.76-34.448-95.817-55.339-154.754-55.339-0.014 0-0.028 0-0.043 0h0.002c-58.58 0.039-112.309 20.775-154.278 55.291l0.422-0.336v-111.957h271.232v-48.384h-590.891v48.384h271.275v164.608c-5.257 7.512-10.526 16.193-15.24 25.21l-0.632 1.328h-410.795v603.051h901.717v-603.051h-48.384v14.763c-9.577-22.717-21.436-42.312-35.686-59.89l0.358 0.456zM671.573 143.189c108.497 0.097 196.426 88.025 196.523 196.513v0.009c-0.097 108.497-88.025 196.426-196.513 196.523h-0.009c-108.497-0.097-196.426-88.025-196.523-196.513v-0.009c0.097-108.497 88.025-196.426 196.513-196.523h0.009zM426.667 339.712c0.075 63.141 24.108 120.655 63.495 163.952l-0.177-0.198v77.312h48.384v-35.84c22.422 14.768 48.553 26.219 76.546 32.862l1.662 0.333v101.675h48.384v-95.531c2.219 0.043 4.395 0.341 6.613 0.341 99.852-0.14 185.7-59.952 223.807-145.681l0.62-1.561v346.24h-804.949v-506.283h344.021c-5.23 18.68-8.291 40.147-8.405 62.312v0.066zM887.467 229.12l13.056 23.253v-23.253h-13.056zM743.083 339.712c0.012 18.206 14.774 32.96 32.981 32.96 18.215 0 32.981-14.766 32.981-32.981 0-0.008 0-0.015 0-0.023v-0.041c-0.024-18.197-14.781-32.939-32.981-32.939-18.215 0-32.981 14.766-32.981 32.981 0 0.015 0 0.030 0 0.045v-0.002zM671.573 372.651c18.223-0.036 32.981-14.817 32.981-33.045 0-18.25-14.795-33.045-33.045-33.045-0.023 0-0.045 0-0.068 0h0.004c-18.223 0.036-32.981 14.817-32.981 33.045 0 18.25 14.795 33.045 33.045 33.045 0.023 0 0.045 0 0.068 0h-0.004zM567.040 372.736c18.197-0.024 32.939-14.781 32.939-32.981 0-18.215-14.766-32.981-32.981-32.981-0.015 0-0.030 0-0.045 0h0.002c-18.197 0.024-32.939 14.781-32.939 32.981 0 18.215 14.766 32.981 32.981 32.981 0.015 0 0.030 0 0.045 0h-0.002z" />
<glyph unicode="&#xe932;" glyph-name="secure-zone" d="M868.608 481.28c0-183.168-154.325-352.683-359.851-396.032-66.549 14.327-125.307 40.269-176.928 75.829l1.654-1.077c27.232 17.078 49.418 32.321 70.996 48.338l-2.942-2.087c30.033-17.009 64.864-30.295 101.747-37.988l2.36-0.412 4.779-0.896 4.779 0.939c155.605 31.232 272.981 160.853 272.981 301.525v7.253c5.913 3.974 11.077 8.243 15.784 12.968l0.003 0.003h0.085c39.936 39.893 40.107 104.533 0.768 144.853 11.093 18.347 20.48 35.925 28.885 53.035l34.901-12.8v-193.408zM733.483 509.141c-0.896-0.043-1.707-0.512-2.645-0.512-0.469 0-0.896 0.256-1.408 0.256-4.438 0.096-8.688 0.713-12.75 1.792l0.377-0.085c-1.707 0.427-3.157 1.237-4.779 1.792-1.408 0.512-2.816 0.939-4.139 1.536-6.103 2.348-11.327 5.721-15.715 9.955l0.014-0.013c-5.094 5.083-9.183 11.171-11.944 17.941l-0.131 0.363c-2.186 5.596-3.467 12.073-3.499 18.846v0.013c-0.043 0.683-0.427 1.28-0.427 2.005 0 1.195 0.597 2.133 0.683 3.371 0.341 4.693 1.237 9.173 2.773 13.653 0.683 2.091 1.152 4.139 2.091 6.059 2.091 4.395 4.907 8.405 8.235 12.203 9.984 11.52 24.235 19.115 40.619 19.115 7.637 0 14.848-1.579 21.419-4.437 6.059-2.56 10.624-6.059 14.379-9.685 2.048-1.792 3.669-3.84 5.419-5.845 2.389-3.029 4.096-5.589 4.693-6.571 0.213-0.341 0.256-0.683 0.384-1.024 2.347-3.925 3.968-8.021 5.248-12.501 0.853-2.901 1.365-5.803 1.792-8.789 0.171-1.92 1.109-3.584 1.109-5.547 0-0.896-0.512-1.707-0.555-2.603 0.001-0.099 0.001-0.216 0.001-0.334 0-14.121-5.669-26.917-14.855-36.238l0.006 0.006c-5.12-5.12-11.093-8.192-17.323-10.581-0.896-0.427-1.92-0.512-2.901-0.853-3.243-1.024-6.485-2.347-9.899-2.859-2.133-0.427-4.181-0.299-6.272-0.427zM590.379 369.749c31.874 31.877 62.567 64.935 92.008 99.103l1.986 2.359c14.677-7.509 30.592-11.733 46.763-11.733 2.56 0 5.12 0.555 7.68 0.725-5.035-113.067-100.736-216.235-228.395-243.883-24.988 5.826-46.871 13.695-67.501 23.738l1.879-0.826c53.071 42.632 100.534 85.323 145.533 130.472l0.045 0.046zM647.552 502.656c-30.463-35.541-60.295-67.697-91.319-98.658l-0.030-0.030c-48.244-48.537-99.415-94.001-153.289-136.169l-3.596-2.711c-71.381 48.981-118.272 124.288-118.272 204.331v121.941l229.376 83.755 138.795-50.688c-13.004-17.043-20.835-38.641-20.835-62.068 0-22.413 7.168-43.153 19.337-60.050l-0.209 0.305zM148.949 481.323v193.451l359.808 131.413 279.467-102.059c-7.040-13.909-14.976-28.459-24.491-44.16-9.789 3.373-21.068 5.321-32.803 5.321-12.693 0-24.854-2.279-36.096-6.451l0.718 0.233-185.173 67.541-277.76-101.419v-155.819c0-90.752 49.024-176.683 125.44-234.795-23.381-16.555-45.141-30.421-65.792-42.667-88.021 75.733-143.36 179.968-143.36 289.365zM139.819 146.816c-10.667 10.667-10.155 48.171 25.728 118.4 22.4-35.541 49.92-68.48 81.749-97.877-55.211-27.093-94.037-33.92-107.52-20.48zM813.227 820.395c10.325-10.325 8.448-35.84-5.12-72.021l-118.4 43.264c67.925 35.541 111.147 41.216 123.52 28.757zM852.907 732.032c19.285 53.333 20.139 96.939-5.461 122.581-46.080 46.080-141.568 4.693-217.6-41.088l-121.131 44.16-408.149-149.077v-227.328c0-57.387 13.653-113.365 37.845-165.547-5.333-9.216-10.709-18.517-15.275-27.307-43.563-84.651-49.493-143.787-17.493-175.787 13.611-13.653 32.213-19.84 54.613-19.84 34.773 0 78.763 15.317 127.573 41.088 60.832-46.163 133.599-80.044 212.761-96.464l3.474-0.602 4.693-0.939 4.821 0.939c229.973 46.165 403.499 237.227 403.499 444.459v227.328l-64.043 23.381z" />
<glyph unicode="&#xe933;" glyph-name="secure-zone-firewall" d="M812.544 253.44c0-41.728-36.395-82.261-84.48-95.787-48.043 13.525-84.48 54.059-84.48 95.787v38.955l84.48 30.848 84.48-30.848v-38.912zM595.243 326.229v-72.789c0-67.328 56.661-130.261 132.864-145.493 76.16 15.232 132.821 78.165 132.821 145.493v72.789l-132.821 48.512-132.864-48.469zM846.507 435.328l-25.771 9.387v139.691h92.629l0.512 0.768v-174.507l-67.413 24.619zM913.877 261.077c0-49.536-22.187-96.853-58.325-134.315-33.643-34.693-77.034-59.753-125.752-70.761l-1.693-0.322c-50.442 11.322-93.862 36.383-127.469 71.019l-0.061 0.063c-13.493 14.015-25.178 29.917-34.587 47.236l-0.571 1.148c-14.421 26.837-23.168 55.893-23.168 85.931v98.133l185.856 67.84 185.771-67.84v-98.133zM520.235 402.645h-69.888v181.76h327.723v-124.16l-50.005 18.347-207.829-75.947zM370.304 175.147h-74.709v179.115h198.229v-93.184c0-29.611 6.187-58.624 17.493-85.931h-141.099zM252.971 175.147h-140.544v179.115h140.501v-179.115zM112.341 584.405h295.296v-181.803h-295.253v181.803zM112.341 804.864h140.629v-172.032h-140.544v172.075zM295.552 804.864h344.064v-172.032h-344.021v172.075zM682.283 804.864h231.552v-172.032h-231.595v172.075zM962.261 853.333h-898.261v-726.613h474.752c41.045-58.667 106.88-103.851 184.533-119.467l4.821-0.981 4.693 0.981c130.816 26.24 229.461 135.381 229.461 253.824l-1.237 132.437 1.28 459.819z" />
<glyph unicode="&#xe934;" glyph-name="site-safer" d="M710.187 486.485l-234.24-85.504v-131.968c0-27.093 5.76-53.589 15.317-78.805h-400.213v424.533h804.949v-196.096l-185.813 67.84zM896 269.013c0-44.843-18.347-87.893-48.512-123.435l-251.307 247.765 113.963 41.643 185.856-67.84v-98.133zM710.187 63.616c-106.325 23.424-185.813 110.933-185.813 205.397v98.133l21.504 7.851 266.795-263.083c-28.743-22.635-63.186-39.435-100.769-47.971l-1.716-0.328zM91.051 663.168v163.157h804.949v-163.157h-804.949zM42.667 874.667v-732.843h472.747c40.533-62.293 109.056-110.379 190.037-126.635l4.693-0.939 4.779 0.939c130.816 26.24 229.461 135.339 229.461 253.824v605.653h-901.717zM154.752 718.080h51.413v51.413h-51.413zM250.88 718.080h51.413v51.413h-51.413zM346.965 718.080h51.413v51.413h-51.413z" />
<glyph unicode="&#xe935;" glyph-name="snapshot" d="M295.936 917.333h647.509v-647.552h-253.269v-253.269h-647.509v647.552h253.269v253.269zM344.277 868.949v-204.885h345.899v-345.899h204.885v550.784h-550.784zM91.051 64.896h550.784v550.827h-550.784v-550.827z" />
<glyph unicode="&#xe936;" glyph-name="workbox-black" d="M761.6 322.133l-43.52-0.427v-75.52h-53.333l76.8-92.16 76.8 92.16h-56.747zM494.080 229.973h53.333v-75.52l43.52-0.427v75.947h56.747l-76.8 92.16zM905.387 333.653v351.573h-58.88v64.853c-0.241 21.73-17.913 39.253-39.678 39.253-0.001 0-0.002 0-0.002 0h-442.88l-48.213 42.667h-315.733v-787.2h431.787c4.523-0.427 9.131-0.427 13.653 0h437.76c0.386-0.004 0.843-0.006 1.3-0.006 76.348 0 138.24 61.892 138.24 138.24 0 3.907-0.162 7.776-0.48 11.6l0.034-0.501c-1.37 69-50.711 126.089-115.974 139.362l-0.933 0.158zM797.867 741.12v-55.893h-312.747c-2.299 0.034-4.319 1.2-5.532 2.964l-0.015 0.023-60.587 52.907h378.88zM348.587 93.013h-298.667v690.347h249.6l148.48-130.56c9.951-9.935 23.658-16.111 38.807-16.213h371.647v-233.387c-42.074 63.041-112.916 104.006-193.326 104.006-84.305 0-158.093-45.029-198.624-112.348l-0.583-1.044c-89.581-16.38-156.587-93.829-156.587-186.927 0-0.133 0-0.267 0-0.4v0.021c0.043-41.173 13.867-81.067 39.253-113.493zM881.493 93.013h-437.76c-49.92 0-87.467 60.587-87.467 114.773 0 0.058 0 0.126 0 0.194 0 73.34 55.904 133.623 127.423 140.561l0.577 0.045h12.8l6.4 11.52c31.052 59.064 91.987 98.654 162.168 98.654 88.358 0 162.059-62.753 178.967-146.121l0.199-1.173 3.84-18.347h18.347c1.158 0.047 2.516 0.074 3.881 0.074 55.53 0 100.736-44.2 102.355-99.338l0.003-0.149c0.551-3.733 0.865-8.041 0.865-12.424 0-49.485-40.115-89.6-89.6-89.6-1.055 0-2.105 0.018-3.15 0.054l0.152-0.004v1.28z" />
<glyph unicode="&#xe937;" glyph-name="getstarted" d="M489.6 222.891l398.080 231.467c10.203 5.997 16.944 16.919 16.944 29.415 0 12.531-6.778 23.479-16.868 29.378l-0.161 0.087-397.909-231.509c-6.15-3.64-13.555-5.79-21.461-5.79s-15.311 2.151-21.66 5.899l0.199-0.109-48.896 28.459-236.843 136.405c-12.867 7.509-21.376 21.248-21.376 36.975 0 0.006 0 0.012 0 0.018v-0.001 9.6c0 0.004 0 0.009 0 0.014 0 10.91 8.844 19.755 19.755 19.755 3.645 0 7.060-0.987 9.991-2.709l-0.093 0.050 276.608-160.085c6.131-3.611 13.507-5.744 21.382-5.744 7.904 0 15.307 2.149 21.654 5.896l-0.199-0.109 385.195 224c12.789 7.527 21.236 21.224 21.236 36.894 0 15.687-8.466 29.397-21.079 36.81l-0.2 0.109-36.907 21.333-259.2 150.187c-6.14 3.624-13.529 5.766-21.419 5.766s-15.279-2.141-21.618-5.874l0.2 0.109-428.373-248.619c-12.795-7.526-21.248-21.226-21.248-36.901 0-0.002 0-0.004 0-0.006v0-205.397c0.003-15.741 8.53-29.49 21.216-36.883l0.203-0.109 340.096-195.413c6.084-3.541 13.391-5.631 21.186-5.631 7.915 0 15.326 2.155 21.68 5.91l-0.198-0.108 398.165 231.509c10.203 5.997 16.944 16.919 16.944 29.415 0 12.531-6.778 23.479-16.868 29.378l-0.161 0.087-397.909-232.363c-6.155-3.647-13.567-5.803-21.483-5.803s-15.327 2.155-21.681 5.911l0.198-0.109-48.853 28.416-236.843 136.405c-12.86 7.505-21.366 21.233-21.376 36.948v9.644c0 0.002 0 0.005 0 0.007 0 10.934 8.864 19.797 19.797 19.797 3.645 0 7.059-0.985 9.992-2.703l-0.093 0.051 277.461-160.171c6.126-3.603 13.495-5.732 21.361-5.732 7.896 0 15.29 2.145 21.633 5.883l-0.199-0.109zM417.493 578.219c14.208 7.125 27.563 10.667 39.168 12.459 16 1.792 38.272 0.896 67.669-1.749 14.251-1.792 28.501-1.792 41.813 0 13.397 1.749 24.96 6.229 35.627 11.52 10.667 6.272 16.939 13.397 17.835 20.48 0.853 7.168-4.48 14.293-15.147 20.48-8.348 5.072-18.44 8.074-29.233 8.074-0.373 0-0.745-0.004-1.116-0.011l0.056 0.001c-7.125 0-14.251-0.896-21.333-2.688-2.939-0.962-6.321-1.516-9.832-1.516-5.889 0-11.414 1.56-16.184 4.288l0.16-0.084-41.813 24.021c-5.376 3.584-5.376 8.021 0.853 10.667 24.064 12.501 49.877 16.939 78.379 15.147 34.206-3.046 65.407-13.565 92.725-29.905l-0.992 0.55c31.147-17.835 48.043-37.419 50.731-57.003s-9.813-37.376-36.523-52.523c-16-9.813-36.48-15.147-60.544-17.835-7.927-0.959-17.106-1.507-26.413-1.507-15.544 0-30.732 1.527-45.421 4.439l1.477-0.244c-14.208 1.792-25.813 1.792-34.688-0.853-6.272-1.835-13.355-3.584-20.48-7.168-2.624-1.21-5.693-1.916-8.928-1.916-3.933 0-7.621 1.043-10.805 2.868l0.106-0.056-46.293 26.709c-7.125 4.437-7.125 9.813-0.853 13.355zM339.115 531.925l24.021 14.251c4.298 2.108 9.354 3.341 14.699 3.341s10.4-1.233 14.9-3.43l-0.201 0.089 37.419-21.376c7.979-4.437 7.979-12.459 0-16.939l-24.064-14.208c-4.298-2.108-9.354-3.341-14.699-3.341s-10.4 1.233-14.9 3.43l0.201-0.089-37.376 21.333c-8.021 5.376-8.021 12.501 0 16.939z" />
<glyph unicode="&#xe938;" glyph-name="shield" d="M516.547 947.814c-145.326 0-290.509-34.55-435.405-103.485l-11.571-5.53v-333.763c0-260.526 176.394-473.887 442.655-531.988l4.321-0.963 4.342 0.963c266.24 58.102 442.655 271.462 442.655 531.988v333.763l-11.592 5.53c-144.876 68.936-290.079 103.485-435.405 103.485zM922.89 505.037c0-239.8-160.973-435.917-406.323-491.336-245.391 55.419-406.385 251.535-406.385 491.315v308.081c135.7 62.73 271.094 94.065 406.364 94.065s270.664-31.334 406.344-94.106v-308.040zM516.547 825.897c-104.796 0-209.428-25.764-313.733-77.107l-11.346-5.591v-249.856c0-194.929 127.754-354.816 320.614-398.377l4.465-1.004 4.485 1.024c192.84 43.54 320.594 203.428 320.594 398.336v249.856l-11.346 5.612c-104.305 51.343-208.916 77.107-313.733 77.107zM801.014 493.322c0-174.408-112.64-316.867-284.467-357.683-171.807 40.817-284.447 183.296-284.447 357.683v224.481c95.068 45.036 189.85 67.461 284.467 67.461s189.358-22.426 284.426-67.461v-224.461zM516.547 651.162c13.476 0 24.371-10.895 24.371-24.371l0.041-16.056c41.042-7.762 64.86-33.444 71.823-71.004h-54.948c-5.059 16.261-19.64 27.484-45.425 27.484-19.62 0-39.813-8.97-39.813-28.611 0-11.203 7.844-18.493 25.805-22.979l52.695-12.349c42.619-10.097 63.939-34.202 63.939-70.656 0-40.223-27.197-67.789-67.625-76.595v-21.811c0-13.471-10.921-24.392-24.392-24.392s-24.392 10.921-24.392 24.392v0 19.927c-47.78 5.816-80.138 33.567-86.589 76.247h57.201c6.144-20.746 24.658-31.416 49.336-31.416 25.805 0 42.619 10.097 42.619 29.737 0 13.455-8.397 20.746-29.164 25.805l-51.589 12.308c-35.328 8.417-61.686 27.484-61.686 68.403 0 38.932 29.962 68.997 73.421 76.268v15.299c0 13.476 10.916 24.371 24.371 24.371z" />
<glyph unicode="&#xe939;" glyph-name="dc" d="M65.331-43.52v38.789h57.549v450.908c0.065 8.361 5.565 15.42 13.138 17.822l0.133 0.037 161.874 51.466 0.020 391.168c0 3.912 0.614 7.782 1.843 11.53 6.513 19.866 28.099 30.597 48.23 24.637l349.082-103.363c15.92-4.657 27.374-19.067 27.505-36.173v-115.174l203.94-63.693c7.209-2.253 12.329-8.294 13.271-15.38l0.164-2.396v-650.179h-876.749zM336.814 905.728v-377.897l68.116 21.647c1.777 0.596 3.823 0.94 5.949 0.94 8.402 0 15.55-5.371 18.197-12.868l0.042-0.135c0.614-1.864 0.942-3.83 0.942-5.796v-536.351h122.88v720.753c0 1.311 0.143 2.601 0.41 3.891l0.553 1.884c3.318 9.83 14.295 15.196 24.515 12.001l107.479-33.567v102.134l-349.061 103.363zM389.12 509.44l-225.28-76.206v-437.965h225.28v514.171zM593.92 693.76v-696.32h307.2v599.122l-307.2 97.198zM676.229 226.918v-77.578h38.789v77.578h-38.789zM763.494 226.918v-77.578h38.789v77.578h-38.789zM676.229 343.265v-77.578h38.789v77.578h-38.789zM763.494 343.265v-77.578h38.789v77.578h-38.789zM676.229 459.633v-77.578h38.789v77.578h-38.789zM763.494 459.633v-77.578h38.789v77.578h-38.789zM676.25 576v-77.578h38.789v77.578h-38.789zM763.515 576v-77.578h38.789v77.578h-38.81z" />
<glyph unicode="&#xe93a;" glyph-name="finance" d="M512 939.52l512-127.242v-160.092c0-0.005 0-0.012 0-0.018 0-26.595-16.892-49.245-40.532-57.805l-0.428-0.135 0.041-263.946c25.654-39.098 40.919-87.011 40.919-138.489 0-0.143 0-0.286 0-0.429v0.022c0-141.394-114.606-256-256-256h-286.72c-89.723 0-165.274 60.723-187.74 143.34h-252.58v40.96h246.026c-0.174 3.083-0.274 6.691-0.274 10.322 0 18.186 2.492 35.79 7.154 52.489l-0.327-1.37h-252.58v40.96h40.96v372.142c-24.068 8.696-40.96 31.346-40.96 57.941 0 0.006 0 0.012 0 0.019v-0.001 20.48h-40.96v139.612l512 127.242zM768 406.426c-0.023 0-0.051 0-0.079 0-86.65 0-161.327-51.259-195.363-125.109l-0.552-1.335-8.438-18.698-18.698 8.52c-18.638 8.666-40.458 13.722-63.458 13.722-84.831 0-153.6-68.769-153.6-153.6 0-84.785 68.694-153.525 153.461-153.6h286.727c118.764 0 215.040 96.297 215.040 215.040 0 118.784-96.276 215.040-215.040 215.040zM389.12 672.666h-61.44v-20.48c0-0.005 0-0.012 0-0.018 0-26.595-16.892-49.245-40.532-57.805l-0.428-0.135v-372.122l23.163-0.020c25.409 46.496 67.908 80.968 118.845 95.271l1.373 0.329v276.275c-24.079 8.69-40.98 31.345-40.98 57.948 0 0.004 0 0.007 0 0.011v-0.001 20.746zM286.72 672.666h-204.8v-20.48c0-11.311 9.169-20.48 20.48-20.48v0h20.48v-409.6h122.88v409.6h20.48c11.311 0 20.48 9.169 20.48 20.48v0 20.48zM634.88 672.379h-204.8v-20.48c0-11.311 9.169-20.48 20.48-20.48v0h20.521v-40.96l-0.041-266.24c3.104 0.177 6.734 0.278 10.388 0.278 22.182 0 43.496-3.716 63.354-10.559l-1.366 0.409c13.836 24.964 30.647 46.319 50.343 64.61l0.161 0.148v211.354l-0.061 40.96h20.541c11.311 0 20.48 9.169 20.48 20.48v0 20.48zM983.040 672.666h-204.8v-20.48c0-0.005 0-0.012 0-0.018 0-10.466 7.851-19.099 17.986-20.33l0.098-0.010 2.396-0.123h20.521v-40.96l-0.020-148.48c47.974-9.998 89.672-32.255 123.033-63.342l-0.153 0.141v252.641h20.46c10.465 0.001 19.096 7.852 20.327 17.985l0.010 0.098 0.143 2.396v20.48zM737.28 672.666h-61.44v-20.767c-0.001-26.594-16.893-49.242-40.532-57.803l-0.428-0.135v-183.869c37.857 23.41 83.758 37.283 132.899 37.283 3.679 0 7.34-0.078 10.981-0.232l-0.52 0.017v147.067c-22.938 8.291-39.33 29.217-40.849 54.161l-0.008 0.172-0.102 3.625v20.48zM512 897.331l-471.040-117.105v-66.621h942.080v66.642l-471.040 117.064z" />
<glyph unicode="&#xe93b;" glyph-name="support" d="M853.975 50.688v110.469h79.38c0.055-0.001 0.12-0.001 0.185-0.001 10.794 0 19.556 8.698 19.66 19.467v389.703c-0.115 10.77-8.873 19.457-19.66 19.457-0.072 0-0.145 0-0.217-0.001h-194.262v38.994h194.294c32.87 0 59.535-26.173 59.535-58.45v-389.693c0-32.276-26.665-58.45-59.535-58.45h-39.69v-156.344l-185.344 156.344h-330.629c-32.891 0-59.535 26.173-59.535 58.45v324.362h39.69v-324.362c0.104-10.779 8.866-19.477 19.66-19.477 0.065 0 0.13 0 0.195 0.001h345.324l130.949-110.449zM741.11 428.605l27.279-28.324-139.489-129.556-86.221 80.015 27.238 28.324 58.962-54.702zM277.852 492.38l-158.147-133.386v133.386h-59.535c-21.914 0-39.69 17.449-39.69 38.973v389.673c0 21.524 17.777 38.973 39.69 38.973h654.889c21.914 0 39.69-17.449 39.69-38.973v-389.673c0-21.524-17.777-38.973-39.69-38.973h-437.207zM159.396 443.843l103.752 87.511h451.912v389.673h-654.889v-389.673h99.226v-87.511zM139.551 823.603h198.451v-194.826h-198.451v194.826zM179.241 784.65v-116.92h119.071v116.92h-119.071zM397.537 804.127h257.987v-38.973h-257.987zM397.537 706.703h257.987v-38.973h-257.987z" />
<glyph unicode="&#xe93c;" glyph-name="feedback" d="M779.51 927.621c-35.574 0-61.338-13.865-76.575-39.69h-552.12c-54.792-0.012-99.205-44.432-99.205-99.226v0-714.424h635.044v144.916h39.69v-184.607h-714.445v754.115c0 76.721 62.195 138.916 138.916 138.916v0h628.695zM785.859 927.621c54.801 0 99.226-44.425 99.226-99.226v-98.099l-158.781 0.041 0.020-137.544h-39.69v235.602c0 10.363 1.597 20.357 4.547 29.757l0.205 0.676c2.724 10.936 6.574 20.644 11.551 29.082l3.564 0.041c18.267 24.195 46.973 39.67 79.293 39.67 0.023 0 0.047 0 0.070 0h-0.003zM785.859 887.931c-26.89 0-49.603-17.818-56.996-42.312-1.623-8.394-2.552-18.047-2.552-27.917 0-0.698 0.005-1.394 0.014-2.090l-0.001 0.105v-45.711h119.071v58.368c0 0.006 0 0.013 0 0.020 0 32.88-26.655 59.535-59.535 59.535v0zM190.505 530.719v-383.775h-39.69v383.775h39.69zM388.956 461.251v-314.307h-39.69v314.307h39.69zM289.731 362.025v-215.081h-39.67v215.081h39.69zM488.182 304.108v-157.164h-39.67v157.164h39.69zM221.594 689.459c8.663 0 16.323-5.632 18.924-13.885l35.779-113.562 61.604 41.554c3.113 2.128 6.958 3.398 11.1 3.4h178.893v-39.69h-172.831l-78.602-53.043c-3.111-2.122-6.953-3.389-11.092-3.389-8.835 0-16.322 5.774-18.893 13.755l-0.039 0.14-39.404 125.030h-76.063v39.69zM706.478 610.099c109.609 0 198.451-88.863 198.451-198.451 0-0.063 0-0.138 0-0.212 0-59.868-26.57-113.53-68.562-149.837l-0.251-0.213 12.513-21.709 34.386 19.866 104.182-180.47c4.179-7.115 6.647-15.672 6.647-24.804 0-18.268-9.875-34.229-24.579-42.837l-0.234-0.127-17.183-9.912c-7.117-4.182-15.677-6.652-24.813-6.652-18.262 0-34.219 9.869-42.828 24.564l-0.127 0.234-104.182 180.47 34.345 19.845-10.752 18.637c-27.837-15.911-61.18-25.293-96.714-25.293-0.106 0-0.211 0-0.317 0h0.017c-109.588 0-198.451 88.842-198.451 198.451 0 109.588 88.863 198.451 198.451 198.451zM918.446 39.383c2.744-4.731 8.806-6.349 13.558-3.625l17.203 9.933c2.982 1.746 4.952 4.934 4.952 8.582 0 1.824-0.493 3.534-1.353 5.002l0.025-0.047-83.21 144.118-34.365-19.866 83.19-144.097zM706.478 570.409c-87.681 0-158.761-71.080-158.761-158.761s71.080-158.761 158.761-158.761v0c87.681 0 158.761 71.080 158.761 158.761s-71.080 158.761-158.761 158.761v0z" />
<glyph unicode="&#xe93d;" glyph-name="consulting" d="M488.264 457.175l51.2-27.443h128.41c0.001 0 0.001 0 0.002 0 42.645 0 77.478-33.446 79.698-75.537l0.008-0.198v-0.778l142.664 56.566c10.545 4.303 22.78 6.8 35.599 6.8 25.040 0 47.854-9.529 65.015-25.158l-0.077 0.069 3.482-3.318c10.793-10.826 17.467-25.765 17.467-42.263 0-19.881-9.692-37.499-24.608-48.386l-0.17-0.118-3.932-2.601-270.541-164.884h-327.045l-36.659-31.314 41.001-58.122-115.773-84.419-23.941 32.829 83.456 60.846-201.216 285.245-83.046-60.969-24.044 32.768 116.408 85.484 41.697-59.126 64.246 57.18c44.562 39.81 103.125 64.782 167.478 66.735l0.397 0.010 7.762 0.102h65.065zM478.044 416.543h-54.845c-52.429 0-103.096-18.432-143.217-51.896l-5.407-4.669-67.686-60.211 118.374-167.793 45.179 38.584h330.629l260.792 158.945c5.567 3.435 9.221 9.501 9.221 16.421 0 5.303-2.146 10.104-5.617 13.583v0c-10.131 10.159-24.142 16.445-39.621 16.445-6.045 0-11.867-0.959-17.32-2.732l0.396 0.111-3.686-1.331-170.394-67.543-0.492 1.27c-13.62-20.297-35.882-33.885-61.395-35.48l-0.229-0.011-4.854-0.143h-123.372v40.632h123.372c21.625 0.016 39.15 17.551 39.15 39.178 0 20.546-15.816 37.399-35.937 39.046l-0.14 0.009-3.072 0.123h-138.65l-51.18 27.464zM402.289 907.162c-145.879 0-264.131-118.231-264.131-264.11 0-71.066 28.16-137.585 77.414-186.819l-28.733-28.713c-55.176 55.013-89.314 131.1-89.314 215.16 0 0.138 0 0.276 0 0.414v-0.022c0 168.305 136.438 304.742 304.742 304.742 0.034 0 0.075 0 0.115 0 116.779 0 218.217-65.686 269.38-162.127l0.799-1.652c8.028 0.819 16.138 1.249 24.33 1.249 129.024 0 233.656-104.612 233.656-233.636 0-30.7-5.939-60.58-17.326-88.412l-37.601 15.38c9.029 21.507 14.275 46.503 14.275 72.725 0 0.108 0 0.216 0 0.324v-0.017c-0.012 106.588-86.415 192.992-193.002 193.004h-0.001c-0.103 0-0.226 0-0.348 0-31.696 0-61.599-7.676-87.952-21.271l1.075 0.504-18.391 36.229c12.657 6.431 25.846 11.674 39.444 15.667-46.594 79.144-131.365 131.42-228.347 131.42-0.031 0-0.062 0-0.092 0h0.005z" />
<glyph unicode="&#xe93e;" glyph-name="credit-event" d="M879.744 746.667c47.128 0 85.333-38.205 85.333-85.333v0-85.333c-70.692 0-128-57.308-128-128s57.308-128 128-128v0-85.333c0-47.128-38.205-85.333-85.333-85.333v0h-725.333c-47.128 0-85.333 38.205-85.333 85.333v0 426.667c0 47.128 38.205 85.333 85.333 85.333v0h725.333zM730.411 277.333h-64v-64h64v64zM421.077 571.733l-130.944-221.781 36.736-21.717 130.987 221.824-36.779 21.675zM477.867 456.533c-35.346 0-64-28.654-64-64s28.654-64 64-64v0c35.346 0 64 28.654 64 64s-28.654 64-64 64v0zM730.411 405.333h-64v-64h64v64zM477.867 413.867c11.782 0 21.333-9.551 21.333-21.333s-9.551-21.333-21.333-21.333v0c-11.782 0-21.333 9.551-21.333 21.333s9.551 21.333 21.333 21.333v0zM268.8 571.733c-35.346 0-64-28.654-64-64s28.654-64 64-64v0c35.346 0 64 28.654 64 64s-28.654 64-64 64v0zM730.411 533.333h-64v-64h64v64zM268.8 529.067c11.782 0 21.333-9.551 21.333-21.333s-9.551-21.333-21.333-21.333v0c-11.782 0-21.333 9.551-21.333 21.333s9.551 21.333 21.333 21.333v0zM730.411 661.333h-64v-64h64v64z" />
<glyph unicode="&#xe93f;" glyph-name="audio-play-dark" d="M556.971 520.619l-148.651 240.896c-2.402 3.819-3.831 8.462-3.84 13.438v150.359c0 14.138 11.462 25.6 25.6 25.6s25.6-11.462 25.6-25.6v-143.104l163.499-264.747c2.403-3.828 3.828-8.481 3.828-13.467 0-12.015-8.277-22.096-19.439-24.854l-0.176-0.037-147.669-35.456v-112c0-14.138-11.462-25.6-25.6-25.6h-97.451l114.261-99.968c5.367-4.711 8.738-11.582 8.747-19.241v-65.879l-0.213-4.139c-3.627-76.373-23.040-109.568-99.627-120.277-37.12-5.205-91.947 12.928-182.869 53.12-9.064 4.076-15.261 13.026-15.261 23.424 0 14.143 11.465 25.607 25.607 25.607 3.745 0 7.302-0.804 10.508-2.248l-0.162 0.065c79.957-35.328 131.84-52.48 155.093-49.237 46.677 6.528 52.992 17.237 55.552 71.936l0.171 2.987v52.992l-156.8 137.216c-5.355 4.716-8.716 11.587-8.716 19.243 0 14.128 11.444 25.582 25.567 25.6h139.948v106.581c0.009 12.011 8.288 22.086 19.451 24.838l0.176 0.037 132.864 31.915zM529.067 320c0 14.138 11.462 25.6 25.6 25.6s25.6-11.462 25.6-25.6v0-128c0-14.138-11.462-25.6-25.6-25.6s-25.6 11.462-25.6 25.6v0 128zM635.733 405.333c0 14.138 11.462 25.6 25.6 25.6s25.6-11.462 25.6-25.6v0-298.667c0-14.138-11.462-25.6-25.6-25.6s-25.6 11.462-25.6 25.6v0 298.667zM742.4 490.667c0 14.138 11.462 25.6 25.6 25.6s25.6-11.462 25.6-25.6v0-455.936c0-14.138-11.462-25.6-25.6-25.6s-25.6 11.462-25.6 25.6v0 455.936zM849.067 576c0 14.138 11.462 25.6 25.6 25.6s25.6-11.462 25.6-25.6v0-469.333c0-14.138-11.462-25.6-25.6-25.6s-25.6 11.462-25.6 25.6v0 469.333zM512 917.333c-259.2 0-469.333-210.133-469.333-469.333s210.133-469.333 469.333-469.333 469.333 210.133 469.333 469.333-210.133 469.333-469.333 469.333zM512 960c282.752 0 512-229.248 512-512s-229.248-512-512-512-512 229.248-512 512 229.248 512 512 512z" />
<glyph unicode="&#xe940;" glyph-name="audio-light" d="M556.971 520.619l-148.651 240.896c-2.402 3.819-3.831 8.462-3.84 13.438v150.359c0 14.138 11.462 25.6 25.6 25.6s25.6-11.462 25.6-25.6v-143.104l163.499-264.747c2.403-3.828 3.828-8.481 3.828-13.467 0-12.015-8.277-22.096-19.439-24.854l-0.176-0.037-147.669-35.456v-112c0-14.138-11.462-25.6-25.6-25.6h-97.451l114.261-99.968c5.367-4.711 8.738-11.582 8.747-19.241v-65.879l-0.213-4.139c-3.627-76.373-23.040-109.568-99.627-120.277-37.12-5.205-91.947 12.928-182.869 53.12-9.064 4.076-15.261 13.026-15.261 23.424 0 14.143 11.465 25.607 25.607 25.607 3.745 0 7.302-0.804 10.508-2.248l-0.162 0.065c79.957-35.328 131.84-52.48 155.093-49.237 46.677 6.528 52.992 17.237 55.552 71.936l0.171 2.987v52.992l-156.8 137.216c-5.355 4.716-8.716 11.587-8.716 19.243 0 14.128 11.444 25.582 25.567 25.6h139.948v106.581c0.009 12.011 8.288 22.086 19.451 24.838l0.176 0.037 132.864 31.915zM529.067 320c0 14.138 11.462 25.6 25.6 25.6s25.6-11.462 25.6-25.6v0-128c0-14.138-11.462-25.6-25.6-25.6s-25.6 11.462-25.6 25.6v0 128zM635.733 405.333c0 14.138 11.462 25.6 25.6 25.6s25.6-11.462 25.6-25.6v0-298.667c0-14.138-11.462-25.6-25.6-25.6s-25.6 11.462-25.6 25.6v0 298.667zM742.4 490.667c0 14.138 11.462 25.6 25.6 25.6s25.6-11.462 25.6-25.6v0-455.936c0-14.138-11.462-25.6-25.6-25.6s-25.6 11.462-25.6 25.6v0 455.936zM849.067 576c0 14.138 11.462 25.6 25.6 25.6s25.6-11.462 25.6-25.6v0-469.333c0-14.138-11.462-25.6-25.6-25.6s-25.6 11.462-25.6 25.6v0 469.333zM512 917.333c-259.2 0-469.333-210.133-469.333-469.333s210.133-469.333 469.333-469.333 469.333 210.133 469.333 469.333-210.133 469.333-469.333 469.333zM512 960c282.752 0 512-229.248 512-512s-229.248-512-512-512-512 229.248-512 512 229.248 512 512 512z" />
<glyph unicode="&#xe941;" glyph-name="audio-dark" d="M556.971 520.619l-148.651 240.896c-2.402 3.819-3.831 8.462-3.84 13.438v150.359c0 14.138 11.462 25.6 25.6 25.6s25.6-11.462 25.6-25.6v-143.104l163.499-264.747c2.403-3.828 3.828-8.481 3.828-13.467 0-12.015-8.277-22.096-19.439-24.854l-0.176-0.037-147.669-35.456v-112c0-14.138-11.462-25.6-25.6-25.6h-97.451l114.261-99.968c5.367-4.711 8.738-11.582 8.747-19.241v-65.879l-0.213-4.139c-3.627-76.373-23.040-109.568-99.627-120.277-37.12-5.205-91.947 12.928-182.869 53.12-9.064 4.076-15.261 13.026-15.261 23.424 0 14.143 11.465 25.607 25.607 25.607 3.745 0 7.302-0.804 10.508-2.248l-0.162 0.065c79.957-35.328 131.84-52.48 155.093-49.237 46.677 6.528 52.992 17.237 55.552 71.936l0.171 2.987v52.992l-156.8 137.216c-5.355 4.716-8.716 11.587-8.716 19.243 0 14.128 11.444 25.582 25.567 25.6h139.948v106.581c0.009 12.011 8.288 22.086 19.451 24.838l0.176 0.037 132.864 31.915zM529.067 320c0 14.138 11.462 25.6 25.6 25.6s25.6-11.462 25.6-25.6v0-128c0-14.138-11.462-25.6-25.6-25.6s-25.6 11.462-25.6 25.6v0 128zM635.733 405.333c0 14.138 11.462 25.6 25.6 25.6s25.6-11.462 25.6-25.6v0-298.667c0-14.138-11.462-25.6-25.6-25.6s-25.6 11.462-25.6 25.6v0 298.667zM742.4 490.667c0 14.138 11.462 25.6 25.6 25.6s25.6-11.462 25.6-25.6v0-455.936c0-14.138-11.462-25.6-25.6-25.6s-25.6 11.462-25.6 25.6v0 455.936zM849.067 576c0 14.138 11.462 25.6 25.6 25.6s25.6-11.462 25.6-25.6v0-469.333c0-14.138-11.462-25.6-25.6-25.6s-25.6 11.462-25.6 25.6v0 469.333zM512 917.333c-259.2 0-469.333-210.133-469.333-469.333s210.133-469.333 469.333-469.333 469.333 210.133 469.333 469.333-210.133 469.333-469.333 469.333zM512 960c282.752 0 512-229.248 512-512s-229.248-512-512-512-512 229.248-512 512 229.248 512 512 512z" />
<glyph unicode="&#xe942;" glyph-name="experience" d="M506.121 574.559c-41.986 0-76.023-34.036-76.023-76.023s34.036-76.023 76.023-76.023v0c41.986 0 76.023 34.036 76.023 76.023s-34.036 76.023-76.023 76.023v0zM1015.561 716.61c-0.086 67.149-54.498 121.561-121.639 121.647h-0.008c-37.035 0-69.86-16.953-92.217-43.198l-293.926 164.94-293.926-164.978c-22.213 26.396-55.224 43.089-92.138 43.217h-0.022c-67.146-0.065-121.567-54.452-121.685-121.579v-0.011c0.102-58.035 40.796-106.536 95.2-118.633l0.81-0.151v-332.383l294.305-165.129c-3.982-11.776-6.068-24.083-6.22-36.542 0.075-67.164 54.502-121.591 121.659-121.666h0.007c67.132 0.119 121.515 54.529 121.591 121.659v0.007c0 12.060-2.313 23.552-5.594 34.588l297.756 167.121v332.25c55.222 12.241 95.924 60.744 96.028 118.773v0.011l0.019 0.057zM507.79 901.272l269.691-151.381c-3.136-9.929-5.023-21.362-5.195-33.209l-0.001-0.090c0-13.255 2.655-25.714 6.618-37.717l-89.809-50.233c-41.144 57.534-107.7 94.612-182.922 94.701h-0.014c-74.904 0-141.16-36.978-182.044-93.468l-87.419 48.981c3.944 11.947 6.637 24.519 6.637 37.755 0 11.643-2.181 22.661-5.253 33.261l269.71 151.4zM506.121 325.025c-95.806 0.097-173.444 77.742-173.53 173.541v0.008c0.097 95.795 77.734 173.425 173.522 173.511h0.008c95.794-0.086 173.43-77.703 173.549-173.481v-0.011c-0.097-95.813-77.737-173.46-173.538-173.568h-0.011zM51.238 716.648c0.086 38.843 31.578 70.301 70.425 70.334h0.003c38.863-0.065 70.347-31.563 70.391-70.424v-0.004c-0.065-38.842-31.546-70.309-70.386-70.353h-0.004c-38.853 0.032-70.345 31.504-70.409 70.346v0.006l-0.019 0.095zM147.266 295.462v302.345c25.381 5.697 47.124 18.699 63.537 36.657l0.084 0.093 87.988-49.266c-11.054-25.545-17.484-55.291-17.484-86.539 0-0.069 0-0.139 0-0.208v0.011c0-115.295 87.249-210.432 199.13-223.232v-92.653c-25.948-5.781-48.141-19.212-64.711-37.769l-0.104-0.119-268.44 150.68zM505.742-6.656c-38.881 0.022-70.396 31.53-70.428 70.406v0.003c0.065 38.863 31.563 70.347 70.424 70.391h0.004c38.846-0.065 70.318-31.543 70.372-70.385v-0.005c-0.054-38.851-31.524-70.334-70.364-70.409h-0.007zM597.049 143.208c-16.63 19.311-39.033 33.232-64.514 39.096l-0.813 0.157v92.881c111.919 12.8 199.168 107.937 199.168 223.232 0 29.26-5.746 58.273-16.953 85.333l90.681 50.707c16.49-18.078 38.244-31.097 62.831-36.635l0.809-0.153v-302.364l-271.208-152.254zM893.914 646.239c-38.853 0.032-70.345 31.504-70.409 70.346v0.006c0.022 38.885 31.527 70.404 70.405 70.447h0.004c38.863-0.065 70.347-31.563 70.391-70.424v-0.004c-0.054-38.858-31.534-70.345-70.384-70.409h-0.006v0.038z" />
</font>
</defs>
</svg>
